Сегодня идет свободное скачивание без начисления Download

Помоги мне с уборкой по дому / Please Help Me With My Homework (StepSiblings) [2016 г., Small Boobs, Tall Girls, Blonde, Long hair, Hardcore, Girl-Boy, Blowjob, Creampie, SiteRip] (Chloe Couture)

Ответить на тему
 
Автор
Сообщение

XP1971 ®

Пол:

Стаж: 4 года 9 месяцев

Сообщений: 5308

Торрент-статистика

Пост 06-Окт-2016 19:03

[Цитировать]

-Помоги мне с уборкой по дому

Please Help Me With My Homework
-- Страна: USA
Режиссер: N/A
Год выпуска: 2016 г.
Перевод: Отсутствует
Продолжительность: 00:22:27
Оригинальный аудиопоток: английский
Студия: StepSiblingsCaught / NubilesNetwork
Жанр: Small Boobs, Tall Girls, Blonde, Long hair,
Hardcore, Girl-Boy, Blowjob, Creampie-В ролях:
Chloe Couture-Оригинальное описание:
Entreaties of the girls, Chloe and her man to help
her tidy up the house has led to orgasm. Very well.-Описание на русском:
Уговоры девки Хлои Кутюр своего мужика помочь ей
прибраться в хате привели к кремпаю. Ну и славненько.-
Контейнер: MP4
Аудио кодек: AAC
Видео кодек: AVC
Cубтитры: отсутствуют
Качество видео: SiteRip
Аудио: Advanced Audio | 44.1 KHz | 2 ch | 74.1 Kbps
Видео: AVC | 640х360 | 1200 Кbps | 29.97 fps | 0.174 bit/pixel

Media Info

Код:
Общее
Полное имя : Chloe Couture (Please Help Me With My Homework)_[/*spam*/].mp4
Формат : MPEG-4
Профиль формата : Base Media
Идентификатор кодека : isom
Размер файла : 206 Мбайт
Продолжительность : 22 м.
Режим общего битрейта : Переменный
Общий поток : 1281 Кбит/сек
Программа кодирования : Lavf56.25.101
Видео
Идентификатор : 1
Формат : AVC
Формат/Информация : Advanced Video Codec
Профиль формата : [email protected]/*  */
Параметр CABAC формата : Нет
Параметр ReFrames формата : 2 кадра
Идентификатор кодека : avc1
Идентификатор кодека/Информация : Advanced Video Coding
Продолжительность : 22 м.
Битрейт : 1200 Кбит/сек
Ширина : 640 пикселей
Высота : 360 пикселей
Соотношение сторон : 16:9
Режим частоты кадров : Постоянный
Частота кадров : 29,970 кадров/сек
Цветовое пространство : YUV
Субдискретизация насыщенности : 4:2:0
Битовая глубина : 8 бит
Тип развёртки : Прогрессивная
Бит/(Пиксели*Кадры) : 0.174
Размер потока : 193 Мбайт (94%)
Библиотека кодирования : x264 core 146
Настройки программы : cabac=0 / ref=2 / deblock=1:0:0 / analyse=0x1:0x111 / me=umh / subme=8 / psy=1 / psy_rd=1.00:0.00 / mixed_ref=1 / me_range=16 / chroma_me=1 / trellis=1 / 8x8dct=0 / cqm=0 / deadzone=21,11 / fast_pskip=1 / chroma_qp_offset=-2 / threads=24 / lookahead_threads=2 / sliced_threads=0 / nr=0 / decimate=1 / interlaced=0 / bluray_compat=0 / constrained_intra=0 / bframes=0 / weightp=0 / keyint=130 / keyint_min=13 / scenecut=40 / intra_refresh=0 / rc_lookahead=50 / rc=crf / mbtree=1 / crf=20.0 / qcomp=0.60 / qpmin=0 / qpmax=69 / qpstep=4 / ip_ratio=1.40 / aq=1:1.00
Язык : English
Аудио
Идентификатор : 2
Формат : AAC
Формат/Информация : Advanced Audio Codec
Профиль формата : LC
Идентификатор кодека : 40
Продолжительность : 22 м.
Duration_LastFrame : -22 мс.
Вид битрейта : Переменный
Битрейт : 74,1 Кбит/сек
Максимальный битрейт : 96,0 Кбит/сек
Каналы : 2 канала
Расположение каналов : Front: L R
Частота : 44,1 КГц
Метод сжатия : С потерями
Размер потока : 11,9 Мбайт (6%)
Язык : English

Скринлист


_________________
На форуме [Профиль] [ЛС]
Похожие темы
Форум Тема Автор Торрент Отв. Посл. сообщение
./templates/default/images/folder_dl.gif Историческая литература Стариков Николай - Ликвидация России. Кто помог красным победить в Гражданской войне? [Александр Карлов, 2015 г., 72-88 kbps, MP3] Omen
1 | 0

0 | 495

10

2016-04-03 21:33
Omen Последнее
Показать сообщения:    
Ответить на тему

Текущее время: Сегодня 06:39

Часовой пояс: GMT + 3



Вы не можете начинать темы
Вы не можете отвечать на сообщения
Вы не можете редактировать свои сообщения
Вы не можете удалять свои сообщения
Вы не можете голосовать в опросах
Вы не можете прикреплять файлы к сообщениям
Вы не можете скачивать файлы