Сегодня идет свободное скачивание без начисления Download

Квирк / Quirke / Сезон: 1 / Серии: 1-3 из 3 (John Alexander) [2013, детектив, драма, HDTVRip] MVO (ТВЦ) + Original

Ответить на тему
 
Автор
Сообщение

Omen ®

Стаж: 6 лет 1 месяц

Сообщений: 184308

Торрент-статистика

Пост 06-Окт-2016 01:00

[Цитировать]

Квирк / Quirke
Год выпуска: 2013
Страна: Великобритания, Ирландия
Жанр: детектив, драма
Продолжительность: 01:28:00
Перевод: Профессиональный (многоголосый закадровый) Back Board Cinema
Режиссёр: John Alexander
В ролях: Гэбриел Бирн, Ник Даннинг, Брайан Глисон, Айслинг Франсиози, Стэнли Таунсенд, Майкл Гэмбон, Джеральдин Сомервилль, Фрэнк О’Салливан, Сара Стюарт, Дэнис Конуэй
Описание: Квирк — новый мини-сериал BBC One, основанный на книгах Джона Банвилла и адаптированный для телевидения сценаристами Эндрю Дэвисом и Конором Макферсоном.
Квирк (Quirke) (его имени мы не узнаем никогда) — главный патологоанатом Дублина.
Каждая серия будет посвящена расследованию Квирком смерти очередной пропащей души, которая окажется на его столе. Но на пути вольного детектива Квирк понимает, что каждая следующая смерть все больше непостижимым образом связана с его жизнью. Со временем Квирку предстоит столкнуться с прошлыми грехами и узнать секреты своей семьи.
Доп. информация: На вырезанный кусок 2-й серии и описание предыдущих серий сделаны вставки с любительской озвучкой Project_Web_Money. Во всех сериях полностью восстановлены финальные титры.
Сэмпл: http://multi-up.com/1121288
Качество: HDTVRip
Формат: AVI
Видео: MPEG4, XviD, 720x400 (16:9), 25.000 fps, 1 836 Kbps (0.255 bit/pixel)
Аудио: AC-3, 48.0 KHz, 2 ch, 192 Kbps, CBR - русский
Аудио 2: AC-3, 48.0 KHz, 2 ch, 192 Kbps, CBR - английский
Субтитры: нет

MediaInfo

Общее
Полное имя : M:\1x01 - Christine Falls.avi
Формат : AVI
Формат/Информация : Audio Video Interleave
Размер файла : 1,37 Гбайт
Продолжительность : 1 ч. 28 м.
Общий поток : 2234 Кбит/сек
Название фильма : Квирк. Сезон 1 / Quirke. Season 3 (2013)
Программа кодирования : VirtualDubMod 1.5.10.2 (build 2540/release)
Библиотека кодирования : VirtualDubMod build 2540/release
Авторское право : miha2154
Видео
Идентификатор : 0
Формат : MPEG-4 Visual
Профиль формата : Advanced Simple@L5
Параметр BVOP формата : 1
Параметр QPel формата : Нет
Параметр GMC формата : Без точки перехода
Параметр матрицы формата : Выборочная
Идентификатор кодека : XVID
Идентификатор кодека/Подсказка : XviD
Продолжительность : 1 ч. 28 м.
Битрейт : 1836 Кбит/сек
Ширина : 720 пикселей
Высота : 400 пикселей
Соотношение сторон : 16:9
Частота кадров : 25,000 кадров/сек
Цветовое пространство : YUV
Субдискретизация насыщенности : 4:2:0
Битовая глубина : 8 бит
Тип развёртки : Прогрессивная
Метод сжатия : С потерями
Бит/(Пиксели*Кадры) : 0.255
Размер потока : 1,13 Гбайт (82%)
Библиотека кодирования : XviD 65
Аудио #1
Идентификатор : 1
Формат : AC-3
Формат/Информация : Audio Coding 3
Расширение режима : CM (complete main)
Параметр Endianness формата : Big
Идентификатор кодека : 2000
Продолжительность : 1 ч. 28 м.
Вид битрейта : Постоянный
Битрейт : 192 Кбит/сек
Каналы : 2 канала
Расположение каналов : Front: L R
Частота : 48,0 КГц
Частота кадров : 31,250 кадров/сек (1536 spf)
Метод сжатия : С потерями
Размер потока : 121 Мбайт (9%)
Выравнивание : Разделение по промежуткам
Продолжительность промежутка : 40 мс. (1,00 видеокадр)
Время предзагрузки промежутка : 500 мс.
Заголовок : Профессиональный (многоголосый закадровый) ТВЦ
Аудио #2
Идентификатор : 2
Формат : AC-3
Формат/Информация : Audio Coding 3
Расширение режима : CM (complete main)
Параметр Endianness формата : Big
Идентификатор кодека : 2000
Продолжительность : 1 ч. 28 м.
Вид битрейта : Постоянный
Битрейт : 192 Кбит/сек
Каналы : 2 канала
Расположение каналов : Front: L R
Частота : 48,0 КГц
Частота кадров : 31,250 кадров/сек (1536 spf)
Метод сжатия : С потерями
Размер потока : 121 Мбайт (9%)
Выравнивание : Разделение по промежуткам
Продолжительность промежутка : 40 мс. (1,00 видеокадр)
Время предзагрузки промежутка : 500 мс.
Заголовок : Английский

Скриншоты


Вне форума [Профиль] [ЛС]
Показать сообщения:    
Ответить на тему

Текущее время: Сегодня 19:16

Часовой пояс: GMT + 3



Вы не можете начинать темы
Вы не можете отвечать на сообщения
Вы не можете редактировать свои сообщения
Вы не можете удалять свои сообщения
Вы не можете голосовать в опросах
Вы не можете прикреплять файлы к сообщениям
Вы не можете скачивать файлы