Сегодня идет свободное скачивание без начисления Download

База Куантико / Quantico / Сезон: 2 / Серии: 1 из 22 (Джошуа Сафран) [2016, Детектив, драма, триллер, WEB-DLRip] MVO (NewStudio) + Original

Ответить на тему
 
Автор
Сообщение

Omen ®

Стаж: 5 лет 9 месяцев

Сообщений: 184433

Торрент-статистика

Пост 06-Окт-2016 01:00

[Цитировать]

База Куантико / Quantico

«The FBI's top recruit is now their most wanted»
Год выпуска: 2016
Страна: США
Жанр: Детектив, драма, триллер
Продолжительность: 00:42:00

Перевод: Профессиональный (многоголосый закадровый) - NewStudio-Режиссёр: Джошуа Сафран-В ролях: Приянка Чопра, Джейк МакЛафлин, Онжаню Эллис, Джоанна Э. Брэдди, Ясмин Эл Масри, Джош Хопкинс, Тейт Эллингтон, Грэхэм Роджерс, Джейкоб Артист, Виктор Корнфут-Описание: По оперативным данным, один из молодых сотрудников ФБР, проходивших обучение на базе Куантико в штате Виргиния, связан с международным террористическим подпольем. Под подозрением оказывается группа новобранцев, в числе которых — перспективный агент Алекс Пэрриш.-Озвучка:(NewStudio)
Перевод: Алексей Матвеев-Сэмпл-Качество: WEB-DLRip
Формат: AVI
Видео: 720x400 (16:9), 23.976 fps, XviD build 73, 1361 Kbps, 0.19 bit/pixel
Аудио 1: MPEG Layer 3, 48.0 KHz, 2 ch, 128 Kbps [Russ]
Аудио 2: MPEG Layer 3, 48.0 KHz, 2 ch, 128 Kbps [Eng]
Субтитры: "отсутствуют"

Список серий

Эпизод 1 - Kudove

MediaInfo

General
Complete name : Downloads\Quantico (Season 02) NewStudio
Format : AVI
Format/Info : Audio Video Interleave
File size : 501 MiB
Duration : 42mn 55s
Overall bit rate : 1 631 Kbps
Writing application : VirtualDubMod 1.5.10.3 | www.virtualdub-fr.org || (build 2550/release)
Writing library : VirtualDubMod build 2550/release
Video #0
ID : 0
Format : MPEG-4 Visual
Format profile : Advanced Simple@L5
Format settings, BVOP : 1
Format settings, QPel : No
Format settings, GMC : No warppoints
Format settings, Matrix : Default (MPEG)
Codec ID : XVID
Codec ID/Hint : XviD
Duration : 42mn 55s
Bit rate : 1 361 Kbps
Width : 720 pixels
Height : 400 pixels
Display aspect ratio : 16:9
Frame rate : 23.976 fps
Color space : YUV
Chroma subsampling : 4:2:0
Bit depth : 8 bits
Scan type : Progressive
Compression mode : Lossy
Bits/(Pixel*Frame) : 0.197
Stream size : 418 MiB (83%)
Writing library : XviD 73
Audio #1
ID : 1
Format : MPEG Audio
Format version : Version 1
Format profile : Layer 3
Mode : Joint stereo
Mode extension : MS Stereo
Codec ID : 55
Codec ID/Hint : MP3
Duration : 42mn 55s
Bit rate mode : Constant
Bit rate : 128 Kbps
Channel(s) : 2 channels
Sampling rate : 48.0 KHz
Compression mode : Lossy
Stream size : 39.3 MiB (8%)
Alignment : Aligned on interleaves
Interleave, duration : 42 ms (1.00 video frame)
Interleave, preload duration : 504 ms
Audio #2
ID : 2
Format : MPEG Audio
Format version : Version 1
Format profile : Layer 3
Mode : Joint stereo
Mode extension : MS Stereo
Codec ID : 55
Codec ID/Hint : MP3
Duration : 42mn 55s
Bit rate mode : Constant
Bit rate : 128 Kbps
Channel(s) : 2 channels
Sampling rate : 48.0 KHz
Compression mode : Lossy
Stream size : 39.3 MiB (8%)
Alignment : Aligned on interleaves
Interleave, duration : 42 ms (1.00 video frame)
Interleave, preload duration : 504 ms

Скриншоты

Внимание! Раздача ведётся путём добавления новых серий:

(1) остановить скачивание,
(2) удалить старый торрент у себя из клиента (старые серии удалять не надо),
(3) скачать новый торрент и запустить его у себя в клиенте вместо старого, при этом указать клиенту путь в старую папку куда и должно происходить скачивание новых серий.
Ваш клиент при этом должен произвести хеширование (проверку) старой папки (если не производит сам - помогите ему сделать это), и будет докачивать только те серии которых у вас ещё нет. Старые серии при этом не удаляются, а продолжают раздаваться!
Eсли вы уже удалили старые серии, то предотвратить повторную закачку старых серий можно, отжав галочку в соответсвующих местах при запуске нового торрента. По возможности, желательно не удалять старые серии как можно дольше чтобы релизёр не столько продолжал раздавать старые серии, а смог сконцентрироваться на новых
.
Вне форума [Профиль] [ЛС]
Показать сообщения:    
Ответить на тему

Текущее время: Сегодня 19:30

Часовой пояс: GMT + 3



Вы не можете начинать темы
Вы не можете отвечать на сообщения
Вы не можете редактировать свои сообщения
Вы не можете удалять свои сообщения
Вы не можете голосовать в опросах
Вы не можете прикреплять файлы к сообщениям
Вы не можете скачивать файлы