Сегодня идет свободное скачивание без начисления Download

Дурная слава / Notorious / Сезон: 1 / Серия: 1-2 из 13 (Майкл Энглер, Майк Листо) [2016, ужасы, триллер, WEB-DL 1080p] MVO (Alternative Production) + Original

Ответить на тему
 
Автор
Сообщение

Omen ®

Стаж: 5 лет 9 месяцев

Сообщений: 184433

Торрент-статистика

Пост 05-Окт-2016 01:00

[Цитировать]

Дурная слава / Notorious
- Год выпуска: 2016
Страна: США
Жанр: триллер, драма
Продолжительность: 00:42:00- Перевод: Любительский (многоголосый закадровый) Alternative Production- Режиссёр: Майкл Энглер, Майк Листо
В ролях: Дэниел Сунджата, Пайпер Перабо, Дж. Аугуст Ричардс, Аль Коронел, Рамон Де Окампо, Райан Гузман, Кеннет Митчелл и др.- Описание:
Сериал основан на реальных историях защитника в уголовных процессах Марка Герагоса и продюсера новостей кабельного телевидения Венди Уокер, и демонстрирует, что происходит за кадром программы новостей.- - Качество: WEB-DL 1080p
Формат: MKV
Видео кодек: H.264
Аудио кодек: AC3
Видео: H.264, 1916x1076 (16:9), 23.976 fps, 5 189 Kbps, 0.105 bit/pixel
Аудио 1: AC3 Dolby Digital, 48 kHz, 3/2 (L,C,R,l,r) + LFE ch, 384 kbps
Аудио 2: AC3 Dolby Digital, 48 kHz, 3/2 (L,C,R,l,r) + LFE ch, 384 kbps
Субтитры: отсутствуют
Релиз

MediaInfo

General
Unique ID : 176561412046372342193948865606977647329 (0x84D47DB55811CB2786E0852F43A0F2E1)
Format : Matroska
Format version : Version 4 / Version 2
File size : 1.80 GiB
Duration : 43mn 12s
Overall bit rate : 5 960 Kbps
Encoded date : UTC 2016-09-26 12:25:50
Writing application : mkvmerge v8.3.0 ('Over the Horizon') 64bit
Writing library : libebml v1.3.1 + libmatroska v1.4.2
Attachments : poster (6).jpg
Video
ID : 1
Format : AVC
Format/Info : Advanced Video Codec
Format profile : High@L4
Format settings, CABAC : Yes
Format settings, ReFrames : 4 frames
Codec ID : V_MPEG4/ISO/AVC
Duration : 43mn 12s
Bit rate : 5 189 Kbps
Width : 1 916 pixels
Height : 1 076 pixels
Display aspect ratio : 16:9
Frame rate mode : Constant
Frame rate : 23.976 (23976/1000) fps
Color space : YUV
Chroma subsampling : 4:2:0
Bit depth : 8 bits
Scan type : Progressive
Bits/(Pixel*Frame) : 0.105
Stream size : 1.57 GiB (87%)
Language : English
Default : Yes
Forced : No
Color range : Limited
Color primaries : BT.709
Transfer characteristics : BT.709
Matrix coefficients : BT.709
Audio #1
ID : 2
Format : AC-3
Format/Info : Audio Coding 3
Mode extension : CM (complete main)
Format settings, Endianness : Big
Codec ID : A_AC3
Duration : 43mn 12s
Bit rate mode : Constant
Bit rate : 384 Kbps
Channel(s) : 6 channels
Channel positions : Front: L C R, Side: L R, LFE
Sampling rate : 48.0 KHz
Frame rate : 31.250 fps (1536 spf)
Compression mode : Lossy
Stream size : 119 MiB (6%)
Title : Alt Pro
Language : Russian
Default : Yes
Forced : No
Audio #2
ID : 3
Format : AC-3
Format/Info : Audio Coding 3
Mode extension : CM (complete main)
Format settings, Endianness : Big
Codec ID : A_AC3
Duration : 43mn 12s
Bit rate mode : Constant
Bit rate : 384 Kbps
Channel(s) : 6 channels
Channel positions : Front: L C R, Side: L R, LFE
Sampling rate : 48.0 KHz
Frame rate : 31.250 fps (1536 spf)
Compression mode : Lossy
Stream size : 119 MiB (6%)
Language : English
Default : No
Forced : No

Скриншоты

Внимание! Раздача ведётся путём добавления новых серий.

Внимание! Раздача ведётся путём добавления новых серий; при каждом добавлении создётся новый торрент. Чтобы начать докачку новой серии, пользователям необходимо сделать следующее:
  • Остановить скачивание.
  • Удалить старый торрент у себя из клиента (старые серии удалять не надо).
  • Скачать новый торрент и запустить его у себя в клиенте вместо старого, при этом указать клиенту путь в старую папку куда и должно происходить скачивание новых серий.
    Ваш клиент при этом должен произвести хеширование (проверку) старой папки (если не производит сам - помогите ему сделать это), и будет докачивать только те серии которых у вас ещё нет. Старые серии при этом не удаляются, а продолжают раздаваться!
    Eсли вы уже удалили старые серии, то предотвратить повторную закачку старых серий можно, отжав галочку в соответсвующих местах при запуске нового торрента. По возможности, желательно не удалять старые серии как можно дольше чтобы релизёр не столько продолжал раздавать старые серии, а смог сконцентрироваться на новых.
    [url=viewtopic.php?t=609808]Как закачать отдельный файл из торрента или докачать ранее пропущенные файлы торрента![/url]
Вне форума [Профиль] [ЛС]
Показать сообщения:    
Ответить на тему

Текущее время: Сегодня 12:05

Часовой пояс: GMT + 3



Вы не можете начинать темы
Вы не можете отвечать на сообщения
Вы не можете редактировать свои сообщения
Вы не можете удалять свои сообщения
Вы не можете голосовать в опросах
Вы не можете прикреплять файлы к сообщениям
Вы не можете скачивать файлы