Сегодня идет свободное скачивание без начисления Download

Полиция Чикаго / Chicago PD / Сезон: 4 / Серии: 1-2 из 22 (Джо Чаппелль, Марк Тинкер) [2016, боевик, драма, HDTVRip] DVO (Levelin)

Ответить на тему
 
Автор
Сообщение

Omen ®

Стаж: 5 лет 6 месяцев

Сообщений: 186946

Торрент-статистика

Пост 05-Окт-2016 01:00

[Цитировать]

--Полиция Чикаго / Chicago P.D.-- Год выпуска: 2016
Страна: США
Жанр: боевик, драма
Продолжительность: ~41min
Перевод: Двухголосый закадровый [Levelin]-Режиссёр: Джо Чаппелль, Марк Тинкер
В ролях: Джейсон Бех, Джон Седа, София Буш, Джесси Ли Соффер, Патрик Флюгер, Марина Скверсьяти, Арчи Као, Элиас Котеас, Эми Мортон, Ларойс Хоукинс-Описание: Полицейский департамент Чикаго (Chicago PD) — американский телесериал, созданный Дереком Хаасом и Майклом Брандтом, который является спин-оффом шоу «Пожарные Чикаго». В центре сюжета находятся работники полицейского департамента города Чикаго, в частности две группы полицейских, которые находятся на разных ступенях власти.-Релиз: -Перевод: Катерина Денищук
Роли озвучивали:
- Ариса Лебедева
- Семён Ващенко-- -Качество: HDTVRip
Формат: AVI
Видео: XVID, 720x400, 16:9, 23.976 FPS, 1 445 kb/s
Аудио: MP3, 48.0 kHz, 2 ch., 192 kb/s
Субтитры: отсутствуют

MediaInfo

Format : AVI
Format/Info : Audio Video Interleave
File size : 490 MiB
Duration : 41 min
Overall bit rate : 1 647 kb/s
Writing application : VirtualDubMod 1.5.10.3 | www.virtualdub-fr.org || (build 2550/release)
Writing library : VirtualDubMod build 2550/release
Video
ID : 0
Format : MPEG-4 Visual
Format profile : Advanced Simple@L5
Format settings, BVOP : 2
Format settings, QPel : No
Format settings, GMC : No warppoints
Format settings, Matrix : Default (MPEG)
Codec ID : XVID
Codec ID/Hint : XviD
Duration : 41 min
Bit rate : 1 445 kb/s
Width : 720 pixels
Height : 400 pixels
Display aspect ratio : 16:9
Frame rate : 23.976 (23976/1000) FPS
Color space : YUV
Chroma subsampling : 4:2:0
Bit depth : 8 bits
Scan type : Progressive
Compression mode : Lossy
Bits/(Pixel*Frame) : 0.209
Stream size : 430 MiB (88%)
Writing library : XviD 1.2.1 (UTC 2008-12-04)
Audio
ID : 1
Format : MPEG Audio
Format version : Version 1
Format profile : Layer 3
Mode : Joint stereo
Codec ID : 55
Codec ID/Hint : MP3
Duration : 41 min
Bit rate mode : Constant
Bit rate : 192 kb/s
Channel(s) : 2 channels
Sampling rate : 48.0 kHz
Compression mode : Lossy
Stream size : 57.2 MiB (12%)
Alignment : Aligned on interleaves
Interleave, duration : 42 ms (1.00 video frame)
Interleave, preload duratio : 504 ms
Writing library : LAME3.99r
Encoding settings : -m j -V 4 -q 2 -lowpass 18.6 -b 192

Скриншоты

Внимание! Раздача ведется путем добавления новых серий!

Внимание! Раздача ведётся путём добавления новых серий; при каждом добавлении создётся новый торрент. Чтобы начать докачку новой серии, пользователям необходимо сделать следующее:
(1) остановить скачивание,
(2) удалить старый торрент у себя из клиента (старые серии удалять не надо),
(3) скачать новый торрент и запустить его у себя в клиенте вместо старого, при этом указать клиенту путь в старую папку куда и должно происходить скачивание новых серий.
Ваш клиент при этом должен произвести хеширование (проверку) старой папки (если не производит сам - помогите ему сделать это), и будет докачивать только те серии которых у вас ещё нет. Старые серии при этом не удаляются, а продолжают раздаваться!
Eсли вы уже удалили старые серии, то предотвратить повторную закачку старых серий можно, отжав галочку в соответсвующих местах при запуске нового торрента
Вне форума [Профиль] [ЛС]
Показать сообщения:    
Ответить на тему

Текущее время: Сегодня 02:21

Часовой пояс: GMT + 3



Вы не можете начинать темы
Вы не можете отвечать на сообщения
Вы не можете редактировать свои сообщения
Вы не можете удалять свои сообщения
Вы не можете голосовать в опросах
Вы не можете прикреплять файлы к сообщениям
Вы не можете скачивать файлы