Сегодня идет свободное скачивание без начисления Download

Лонгмайр / Longmire / Сезон: 5 / Серии: 1 из 10 (Джеймс М. Муро, Кристофер Чулак, Майкл Оффер) [2016, боевик, драма, криминал, вестерн, WEBRip] MVO (Jaskier) + Original

Ответить на тему
 
Автор
Сообщение

Omen ®

Стаж: 5 лет 11 месяцев

Сообщений: 184329

Торрент-статистика

Пост 05-Окт-2016 01:00

[Цитировать]

Лонгмайр | Longmire- Оригинальное название: Longmire
Русское название: Лонгмайр
Год выпуска: 2016
Страна: США
Жанр: боевик, драма, криминал, вестерн
Продолжительность: ~00:55:00-Перевод: Профессиональный (многоголосый закадровый) Студия Jaskier
Субтитры: Нет-Режиссёр: Джеймс М. Муро, Кристофер Чулак, Майкл Оффер и др.-В ролях: Роберт Тейлор, Кэти Сакхофф, Лу Даймонд Филлипс, Кэссиди Фриман, Адам Бартли, Луанна Стефенс, Бэйли Чейз, Эй Мартинез, Занн МаКларнон, Ричард Бил и др.-Описание: Уолт Лонгмайр — шериф одного небольшого провинциального городка, расположенного в так называемом «Штате равноправия», то есть в Вайоминге. Его психологический портрет отличается весьма положительными характеристиками — порядочный, спокойный, честный, скромный, с хорошим чувством юмора. Прошел всего лишь год с той поры, как Уолт стал вдовцом. Пережить горечь этой утраты шерифу помогает его работа, которой он целиком и полностью отдает все свои силы и время. Полгода тому назад в городок прибыла Вик, ставшая первым замом и главной помощницей Уолта Лонгмайра. К слову, ранее эта симпатичная девушка работала детективом в убойном отделе полиции Филадельфии. Вместе эта парочка следит за порядком на вверенной им территории, и в свободное время тоже.-Сэмпл-Качество: WEBRip
Формат: AVI-Видео: XviD, 720x408 (16:9), 23.976 fps, ~1200 kbps, ~0.134 bit/pixel-Аудио 1: AC3, 48 kHz, stereo, 192 kbps Русский
Аудио 2: MP3, 48 kHz, stereo, 128 kbps Оригинал (Английский)-

MediaInfo

Код:
General
Complete name               : xxxxxxxxxxxxxx\Longmire.S05E01.XviD.WEBRip.Jaskier.avi
Format                      : AVI
Format/Info                 : Audio Video Interleave
File size                   : 539 MiB
Duration                    : 59mn 1s
Overall bit rate            : 1 276 Kbps
Writing application         : VirtualDubModRus 1.5.10.2 (build 2540/release)
Writing library             : VirtualDubMod build 2540/release
Video
ID                          : 0
Format                      : MPEG-4 Visual
Format profile              : Advanced Simple@L5
Format settings, BVOP       : 1
Format settings, QPel       : No
Format settings, GMC        : No warppoints
Format settings, Matrix     : Default (H.263)
Codec ID                    : XVID
Codec ID/Hint               : XviD
Duration                    : 59mn 1s
Bit rate                    : 942 Kbps
Width                       : 720 pixels
Height                      : 408 pixels
Display aspect ratio        : 16:9
Frame rate                  : 23.976 (23976/1000) fps
Color space                 : YUV
Chroma subsampling          : 4:2:0
Bit depth                   : 8 bits
Scan type                   : Progressive
Compression mode            : Lossy
Bits/(Pixel*Frame)          : 0.134
Stream size                 : 398 MiB (74%)
Writing library             : XviD 1.2.1 (UTC 2008-12-04)
Audio #1
ID                          : 1
Format                      : AC-3
Format/Info                 : Audio Coding 3
Mode extension              : CM (complete main)
Format settings, Endianness : Big
Codec ID                    : 2000
Duration                    : 59mn 1s
Bit rate mode               : Constant
Bit rate                    : 192 Kbps
Channel(s)                  : 2 channels
Channel positions           : Front: L R
Sampling rate               : 48.0 KHz
Frame rate                  : 31.250 fps (1536 spf)
Compression mode            : Lossy
Stream size                 : 81.0 MiB (15%)
Alignment                   : Split accross interleaves
Interleave, duration        : 42 ms (1.00 video frame)
Interleave, preload duratio : 500 ms
Audio #2
ID                          : 2
Format                      : MPEG Audio
Format version              : Version 1
Format profile              : Layer 3
Codec ID                    : 55
Codec ID/Hint               : MP3
Duration                    : 59mn 1s
Bit rate mode               : Constant
Bit rate                    : 128 Kbps
Channel(s)                  : 2 channels
Sampling rate               : 48.0 KHz
Compression mode            : Lossy
Stream size                 : 54.0 MiB (10%)
Alignment                   : Aligned on interleaves
Interleave, duration        : 42 ms (1.00 video frame)
Interleave, preload duratio : 504 ms
Writing library             : LAME3.98r
Encoding settings           : -m s -V 4 -q 0 -lowpass 17 -b 128

Скриншоты

Вне форума [Профиль] [ЛС]
Показать сообщения:    
Ответить на тему

Текущее время: Сегодня 07:55

Часовой пояс: GMT + 3



Вы не можете начинать темы
Вы не можете отвечать на сообщения
Вы не можете редактировать свои сообщения
Вы не можете удалять свои сообщения
Вы не можете голосовать в опросах
Вы не можете прикреплять файлы к сообщениям
Вы не можете скачивать файлы