Сегодня идет свободное скачивание без начисления Download

Лонгмайр / Longmire / Сезон: 5 / Серии: 1 из 10 (Джеймс М. Муро, Кристофер Чулак, Майкл Оффер) [2016, боевик, драма, криминал, вестерн, WEBRip 720p] MVO (Jaskier) + Original

Ответить на тему
 
Автор
Сообщение

Omen ®

Стаж: 5 лет 6 месяцев

Сообщений: 186946

Торрент-статистика

Пост 05-Окт-2016 01:00

[Цитировать]

Лонгмайр | Longmire- Оригинальное название: Longmire
Русское название: Лонгмайр
Год выпуска: 2016
Страна: США
Жанр: боевик, драма, криминал, вестерн
Продолжительность: ~00:55:00-Перевод: Профессиональный (многоголосый закадровый) Студия Jaskier
Субтитры: Нет-Режиссёр: Джеймс М. Муро, Кристофер Чулак, Майкл Оффер и др.-В ролях: Роберт Тейлор, Кэти Сакхофф, Лу Даймонд Филлипс, Кэссиди Фриман, Адам Бартли, Луанна Стефенс, Бэйли Чейз, Эй Мартинез, Занн МаКларнон, Ричард Бил и др.-Описание: Уолт Лонгмайр — шериф одного небольшого провинциального городка, расположенного в так называемом «Штате равноправия», то есть в Вайоминге. Его психологический портрет отличается весьма положительными характеристиками — порядочный, спокойный, честный, скромный, с хорошим чувством юмора. Прошел всего лишь год с той поры, как Уолт стал вдовцом. Пережить горечь этой утраты шерифу помогает его работа, которой он целиком и полностью отдает все свои силы и время. Полгода тому назад в городок прибыла Вик, ставшая первым замом и главной помощницей Уолта Лонгмайра. К слову, ранее эта симпатичная девушка работала детективом в убойном отделе полиции Филадельфии. Вместе эта парочка следит за порядком на вверенной им территории, и в свободное время тоже.-Сэмпл-Качество: WEBRip 720p
Формат: MKV-Видео: AVC, 1280x720 (16:9), 23.976 fps, ~6396 kbps, ~0.289 bit/pixel-Аудио 1: AC3, 48 kHz, 6 ch, 384 kbps Русский
Аудио 2: AC3, 48 kHz, 6 ch, 384 kbps Оригинал (Английский)-

MediaInfo

Код:
General
Unique ID                                : 202805070791221723069828571406346618106 (0x9892D5FBA4F6ED05B611AE020B2A04FA)
Complete name                            : F:\Movies\Сериалы\Longmire. Season 5 (WEBRip l 720p l Jaskier)\Longmire.S05E01.720p.WEBRip.Jaskier.Rus.Eng.mkv
Format                                   : Matroska
Format version                           : Version 4 / Version 2
File size                                : 2.95 GiB
Duration                                 : 59mn 1s
Overall bit rate                         : 7 166 Kbps
Encoded date                             : UTC 2016-10-04 00:20:20
Writing application                      : mkvmerge v7.8.0 ('River Man') 64bit built on Mar 27 2015 16:31:37
Writing library                          : libebml v1.3.1 + libmatroska v1.4.2
Video
ID                                       : 1
Format                                   : AVC
Format/Info                              : Advanced Video Codec
Format profile                           : High@L4.1
Format settings, CABAC                   : Yes
Format settings, ReFrames                : 9 frames
Codec ID                                 : V_MPEG4/ISO/AVC
Duration                                 : 59mn 1s
Bit rate                                 : 6 396 Kbps
Width                                    : 1 280 pixels
Height                                   : 720 pixels
Display aspect ratio                     : 16:9
Frame rate mode                          : Constant
Frame rate                               : 23.976 (24000/1001) fps
Color space                              : YUV
Chroma subsampling                       : 4:2:0
Bit depth                                : 8 bits
Scan type                                : Progressive
Bits/(Pixel*Frame)                       : 0.289
Stream size                              : 2.64 GiB (89%)
Writing library                          : x264 core 148 r2705+3 3f5ed56 / tmod 418b0d4 X86_64
Encoding settings                        : cabac=1 / ref=9 / deblock=1:-3:-3 / analyse=0x3:0x113 / me=umh / subme=10 / psy=1 / fade_compensate=0.00 / psy_rd=1.05:0.15 / mixed_ref=1 / me_range=36 / chroma_me=1 / trellis=2 / 8x8dct=1 / cqm=0 / deadzone=6,6 / fast_pskip=0 / chroma_qp_offset=-3 / threads=12 / lookahead_threads=2 / sliced_threads=0 / nr=0 / decimate=0 / interlaced=0 / bluray_compat=0 / constrained_intra=0 / fgo=0 / bframes=9 / b_pyramid=2 / b_adapt=2 / b_bias=0 / direct=3 / weightb=1 / open_gop=0 / weightp=2 / keyint=250 / keyint_min=23 / scenecut=40 / intra_refresh=0 / rc=crf / mbtree=0 / crf=18.0000 / qcomp=0.75 / qpmin=0:0:0 / qpmax=69:69:69 / qpstep=4 / ip_ratio=1.10 / pb_ratio=1.10 / aq=3:0.80 / aq-sensitivity=10.00 / aq-factor=1.00:1.00:1.00 / aq2=0 / aq3=0
Language                                 : English
Default                                  : Yes
Forced                                   : No
Audio #1
ID                                       : 2
Format                                   : AC-3
Format/Info                              : Audio Coding 3
Mode extension                           : CM (complete main)
Format settings, Endianness              : Big
Codec ID                                 : A_AC3
Duration                                 : 59mn 1s
Bit rate mode                            : Constant
Bit rate                                 : 384 Kbps
Channel(s)                               : 6 channels
Channel positions                        : Front: L C R, Side: L R, LFE
Sampling rate                            : 48.0 KHz
Frame rate                               : 31.250 fps (1536 spf)
Compression mode                         : Lossy
Stream size                              : 162 MiB (5%)
Title                                    : Jaskier
Language                                 : Russian
Default                                  : Yes
Forced                                   : No
Audio #2
ID                                       : 3
Format                                   : AC-3
Format/Info                              : Audio Coding 3
Mode extension                           : CM (complete main)
Format settings, Endianness              : Big
Codec ID                                 : A_AC3
Duration                                 : 59mn 1s
Bit rate mode                            : Constant
Bit rate                                 : 384 Kbps
Channel(s)                               : 6 channels
Channel positions                        : Front: L C R, Side: L R, LFE
Sampling rate                            : 48.0 KHz
Frame rate                               : 31.250 fps (1536 spf)
Compression mode                         : Lossy
Stream size                              : 162 MiB (5%)
Title                                    : original
Language                                 : English
Default                                  : No
Forced                                   : No
Text #1
ID                                       : 4
Format                                   : UTF-8
Codec ID                                 : S_TEXT/UTF8
Codec ID/Info                            : UTF-8 Plain Text
Duration                                 : 56mn 59s
Bit rate                                 : 68 bps
Count of elements                        : 902
Stream size                              : 28.6 KiB (0%)
Title                                    : English
Language                                 : English
Default                                  : No
Forced                                   : No
Text #2
ID                                       : 5
Format                                   : UTF-8
Codec ID                                 : S_TEXT/UTF8
Codec ID/Info                            : UTF-8 Plain Text
Duration                                 : 57mn 40s
Bit rate                                 : 70 bps
Count of elements                        : 970
Stream size                              : 29.7 KiB (0%)
Title                                    : English (SDH)
Language                                 : English
Default                                  : No
Forced                                   : No

Скриншоты

Вне форума [Профиль] [ЛС]
Показать сообщения:    
Ответить на тему

Текущее время: Сегодня 03:20

Часовой пояс: GMT + 3



Вы не можете начинать темы
Вы не можете отвечать на сообщения
Вы не можете редактировать свои сообщения
Вы не можете удалять свои сообщения
Вы не можете голосовать в опросах
Вы не можете прикреплять файлы к сообщениям
Вы не можете скачивать файлы