Сегодня идет свободное скачивание без начисления Download

Люк Кейдж / Luke Cage / Сезон: 1 / Серии: 1 из 13 (Пол МакГиган, Энди Годдар, Марк Йобст) [2016, Фантастика, боевик, триллер, криминал, WEBRip 720p] MVO (NewStudio)

Ответить на тему
 
Автор
Сообщение

Omen ®

Стаж: 5 лет 10 месяцев

Сообщений: 184329

Торрент-статистика

Пост 03-Окт-2016 01:00

[Цитировать]

-Люк Кейдж | Luke Cage-- • Год выпуска: 2016
• Страна: США
• Жанр: фантастика, боевик, триллер, криминал
• Продолжительность: ~ 00:50:00-• Перевод: Профессиональный (многоголосый закадровый) | NewStudio-• Режиссёр: Пол МакГиган, Энди Годдар, Марк Йобст-• В ролях: Махершала Али, Майк Колтер, Фрэнки Фэйзон, Дариус Калеб, Симона Кук, Тео Росси, Фрэнк Уэйли, Элфри Вудард, Джейд Ву и др.-• Описание: Карл Лукас, он же Люк Кейдж, получил сверхсилу и невиданную выносливость - непробиваемую кожу. Ранее, используя свои способности, Кейдж сбежал из тюрьмы и стал героем по найму. После истории с Джессикой Джонс супергерой пытается начать новую жизнь в нью-йоркском районе Гарлем. Однако Люку все же придется выйти из тени, чтобы защитить родной город и встретиться лицом к лицу с прошлым, от которого он пытался убежать.- --• Качество: WEBRip 720p
• Формат: MKV
• Видео: X264, 1280x720 (16:9), 23,976 fps, ~4000 kbps
• Аудио #1: AC3, 48 kHz, 6 ch, 384 kbps, CBR - Rus
• Аудио #2: AC3, 48 kHz, 6 ch, 384 kbps, CBR - Eng
• Субтитры: отсутствуют-

✘ Подробнее ✘

Перевод: Юлия Мейер, Ирина Гвозденко, Александра Цернант
✦ полностью отсутствует реклама.

✘ MediaInfo ✘

Код:
Общее
Уникальный идентификатор                 : 247398461039756996566082014596587862782 (0xBA1F35DED1568B5F873A8EB9999C3AFE)
Полное имя                               : X:\ATorrent\Luke Cage (Season 01) NewStudio 720\Luke.Cage.[S01E01].HD720.NewStudio.[qqss44].mkv
Формат                                   : Matroska
Версия формата                           : Version 2
Размер файла                             : 1,67 Гбайт
Продолжительность                        : 54 м.
Общий поток                              : 4434 Кбит/сек
Название фильма                          : marvels.luke.cage.s01e01.720p.skgtv
Дата кодирования                         : UTC 2016-10-02 00:06:26
Программа кодирования                    : mkvmerge v7.9.0 ('Birds') 64bit
Библиотека кодирования                   : libebml v1.3.1 + libmatroska v1.4.2
Видео
Идентификатор                            : 1
Формат                                   : AVC
Формат/Информация                        : Advanced Video Codec
Профиль формата                          : High@L4.1
Параметр CABAC формата                   : Да
Параметр ReFrames формата                : 5 кадров
Идентификатор кодека                     : V_MPEG4/ISO/AVC
Продолжительность                        : 54 м.
Битрейт                                  : 3664 Кбит/сек
Ширина                                   : 1280 пикселей
Высота                                   : 720 пикселей
Соотношение сторон                       : 16:9
Режим частоты кадров                     : Постоянный
Частота кадров                           : 23,976 (24000/1001) кадра/сек
Цветовое пространство                    : YUV
Субдискретизация насыщенности            : 4:2:0
Битовая глубина                          : 8 бит
Тип развёртки                            : Прогрессивная
Бит/(Пиксели*Кадры)                      : 0.166
Размер потока                            : 1,38 Гбайт (83%)
Библиотека кодирования                   : x264 core 148 r2705 3f5ed56
Настройки программы                      : cabac=1 / ref=5 / deblock=1:-3:-3 / analyse=0x3:0x113 / me=umh / subme=8 / psy=1 / psy_rd=1.00:0.00 / mixed_ref=1 / me_range=16 / chroma_me=1 / trellis=1 / 8x8dct=1 / cqm=0 / deadzone=21,11 / fast_pskip=1 / chroma_qp_offset=-2 / threads=12 / lookahead_threads=2 / sliced_threads=0 / nr=0 / decimate=1 / interlaced=0 / bluray_compat=0 / constrained_intra=0 / bframes=3 / b_pyramid=2 / b_adapt=2 / b_bias=0 / direct=3 / weightb=1 / open_gop=0 / weightp=2 / keyint=250 / keyint_min=23 / scenecut=40 / intra_refresh=0 / rc_lookahead=50 / rc=crf / mbtree=1 / crf=18.0 / qcomp=0.60 / qpmin=0 / qpmax=69 / qpstep=4 / ip_ratio=1.40 / aq=1:1.00
Язык                                     : English
Default                                  : Да
Forced                                   : Нет
Цветовой диапазон                        : Limited
Коэффициенты матрицы                     : BT.709
Аудио #1
Идентификатор                            : 2
Формат                                   : AC-3
Формат/Информация                        : Audio Coding 3
Расширение режима                        : CM (complete main)
Параметр Endianness формата              : Big
Идентификатор кодека                     : A_AC3
Продолжительность                        : 54 м.
Вид битрейта                             : Постоянный
Битрейт                                  : 384 Кбит/сек
Каналы                                   : 6 каналов
Расположение каналов                     : Front: L C R, Side: L R, LFE
Частота                                  : 48,0 КГц
Частота кадров                           : 31,250 кадров/сек (1536 spf)
Метод сжатия                             : С потерями
Размер потока                            : 148 Мбайт (9%)
Язык                                     : English
Default                                  : Нет
Forced                                   : Нет
Аудио #2
Идентификатор                            : 3
Формат                                   : AC-3
Формат/Информация                        : Audio Coding 3
Расширение режима                        : CM (complete main)
Параметр Endianness формата              : Big
Идентификатор кодека                     : A_AC3
Продолжительность                        : 54 м.
Вид битрейта                             : Постоянный
Битрейт                                  : 384 Кбит/сек
Каналы                                   : 6 каналов
Расположение каналов                     : Front: L C R, Side: L R, LFE
Частота                                  : 48,0 КГц
Частота кадров                           : 31,250 кадров/сек (1536 spf)
Метод сжатия                             : С потерями
Размер потока                            : 148 Мбайт (9%)
Язык                                     : Russian
Default                                  : Да
Forced                                   : Нет
Текст
Идентификатор                            : 4
Формат                                   : ASS
Идентификатор кодека                     : S_TEXT/ASS
Идентификатор кодека/Информация          : Advanced Sub Station Alpha
Продолжительность                        : 970 мс.
Битрейт                                  : 437 бит/сек
Count of elements                        : 1
Метод сжатия                             : Без потерь
Размер потока                            : 53,0 байт (0%)
Заголовок                                : Forced
Язык                                     : Russian
Default                                  : Да
Forced                                   : Нет

✘ Скриншоты ✘

✘ Раздача ведется путем добавления новых серий ✘

Когда раздача ведётся путём добавления новых серий, при каждом добавлении создётся новый торрент. Чтобы начать докачку новой серии, пользователям необходимо сделать следующее:
(1) остановить скачивание,
(2) удалить старый торрент у себя из клиента (старые серии удалять не надо),
(3) скачать новый торрент и запустить его у себя в клиенте вместо старого, при этом указать клиенту путь в старую папку, куда и должно происходить скачивание новых серий.
Ваш клиент при этом должен произвести хеширование (проверку) старой папки (если не производит сам - помогите ему сделать это), и будет докачивать только те серии, которых у вас ещё нет. Старые серии при этом не удаляются, а продолжают раздаваться!
Eсли вы уже удалили старые серии, то предотвратить повторную закачку старых серий можно, отжав галочку в соответсвующих местах при запуске нового торрента. По возможности, желательно не удалять старые серии как можно дольше, чтобы релизёр не столько продолжал раздавать старые серии, а смог сконцентрироваться на новых.
-
Вне форума [Профиль] [ЛС]
Показать сообщения:    
Ответить на тему

Текущее время: Сегодня 10:01

Часовой пояс: GMT + 3



Вы не можете начинать темы
Вы не можете отвечать на сообщения
Вы не можете редактировать свои сообщения
Вы не можете удалять свои сообщения
Вы не можете голосовать в опросах
Вы не можете прикреплять файлы к сообщениям
Вы не можете скачивать файлы