Сегодня идет свободное скачивание без начисления Download

Как избежать наказания за убийство / How to Get Away with Murder / Сезон: 3 / Серии: 1 из ?? (Билл Д’Элиа, Майкл Оффер) [2016, драма, WEB-DL 720p] MVO (Flux-Team) + Original + Sub (Rus, Eng)

Ответить на тему
 
Автор
Сообщение

Omen ®

Стаж: 5 лет 6 месяцев

Сообщений: 186946

Торрент-статистика

Пост 03-Окт-2016 01:00

[Цитировать]

Как избежать наказания за убийство / How to Get Away with Murder Год выпуска: 2016
Страна: США
Жанр: драма
Продолжительность: ~ 00:45:00
Перевод: Любительский (многоголосый, закадровый) [Flux-Team]
Режиссёр: Билл Д’Элиа, Майкл Оффер-В ролях: Виола Дэвис, Чарли Вебер, Карен Кабрера, Билли Браун, Альфред Энок, Джек Фалахи, Кэти Финдлей, Аджа Наоми Кинг и др.-Описание: Профессор Эннализ Китинг — блестящий адвокат. Она преподает у студентов дисциплину под названием: «Как избежать наказания за убийство». Но те даже не подозревают, что в скором времени им придется применить свои знания в этой области в реальной жизни...-Качество: WEB-DL 720p
Формат: MKV
Видео кодек: H.264
Аудио кодек: AC3
Видео: 1280x720, 23.976 fps, x264 ~4100 kbps avg, ~0.186 bit/pixel
Аудио #1: 48 kHz, AC3, 6 ch, 384.00 kbps avg MVO [Flux-Team]
Аудио #2: 48 kHz, AC3, 6 ch, 384.00 kbps avg Original
Субтитры: Русские (Notabenoid), Английский-Перевод: sme4ever, cloudmachine_, RomanovaEko, dimambo и др.
Закадровый текст читали: Natemily, Die_Otter, Донцов, Inimyo-Сэмпл / TVRAGE / TV.com / IMDB / КиноПоиск-

MediaInfo

Код:
General
Unique ID                   : 204891198178046416687912046834242429389 (0x9A249C011098390CB83988332CE621CD)
Complete name               : G:\000\How.to.Get.Away.with.Murder.S03.WEB-DL.720p.Rus.Eng-FluxTeam\How.to.Get.Away.with.Murder.S03E01.WEB-DL.720p.Rus.Eng-FluxTeam.mkv
Format                      : Matroska
Format version              : Version 4 / Version 2
File size                   : 1.47 GiB
Duration                    : 43mn 3s
Overall bit rate            : 4 872 Kbps
Encoded date                : UTC 2016-10-01 17:44:14
Writing application         : mkvmerge v8.9.0 ('Father Daughter') 32bit
Writing library             : libebml v1.3.3 + libmatroska v1.4.4
Cover                       : Yes
Attachments                 : cover.jpg
Video
ID                          : 1
Format                      : AVC
Format/Info                 : Advanced Video Codec
Format profile              : High@L3.1
Format settings, CABAC      : No
Format settings, ReFrames   : 2 frames
Codec ID                    : V_MPEG4/ISO/AVC
Duration                    : 43mn 3s
Bit rate                    : 4 101 Kbps
Width                       : 1 280 pixels
Height                      : 720 pixels
Display aspect ratio        : 16:9
Frame rate mode             : Constant
Frame rate                  : 23.976 (23976/1000) fps
Color space                 : YUV
Chroma subsampling          : 4:2:0
Bit depth                   : 8 bits
Scan type                   : Progressive
Bits/(Pixel*Frame)          : 0.186
Stream size                 : 1.23 GiB (84%)
Language                    : English
Default                     : Yes
Forced                      : No
Color range                 : Limited
Color primaries             : BT.709
Transfer characteristics    : BT.709
Matrix coefficients         : BT.709
Audio #1
ID                          : 2
Format                      : AC-3
Format/Info                 : Audio Coding 3
Mode extension              : CM (complete main)
Format settings, Endianness : Big
Codec ID                    : A_AC3
Duration                    : 43mn 3s
Bit rate mode               : Constant
Bit rate                    : 384 Kbps
Channel(s)                  : 6 channels
Channel positions           : Front: L C R, Side: L R, LFE
Sampling rate               : 48.0 KHz
Frame rate                  : 31.250 fps (1536 spf)
Compression mode            : Lossy
Stream size                 : 118 MiB (8%)
Title                       : MVO [Flux-Team]
Language                    : Russian
Default                     : Yes
Forced                      : No
Audio #2
ID                          : 3
Format                      : AC-3
Format/Info                 : Audio Coding 3
Mode extension              : CM (complete main)
Format settings, Endianness : Big
Codec ID                    : A_AC3
Duration                    : 43mn 3s
Bit rate mode               : Constant
Bit rate                    : 384 Kbps
Channel(s)                  : 6 channels
Channel positions           : Front: L C R, Side: L R, LFE
Sampling rate               : 48.0 KHz
Frame rate                  : 31.250 fps (1536 spf)
Compression mode            : Lossy
Stream size                 : 118 MiB (8%)
Title                       : Original
Language                    : English
Default                     : No
Forced                      : No
Text #1
ID                          : 4
Format                      : UTF-8
Codec ID                    : S_TEXT/UTF8
Codec ID/Info               : UTF-8 Plain Text
Duration                    : 42mn 25s
Bit rate                    : 128 bps
Count of elements           : 751
Stream size                 : 40.0 KiB (0%)
Title                       : Notabenoid
Language                    : Russian
Default                     : No
Forced                      : No
Text #2
ID                          : 5
Format                      : UTF-8
Codec ID                    : S_TEXT/UTF8
Codec ID/Info               : UTF-8 Plain Text
Duration                    : 42mn 20s
Bit rate                    : 83 bps
Count of elements           : 861
Stream size                 : 26.0 KiB (0%)
Language                    : English
Default                     : No
Forced                      : No

Скриншоты

Внимание! Раздача ведется путем добавления новых серий

Внимание! Раздача ведётся путём добавления новых серий; при каждом добавлении создаётся новый торрент. Чтобы начать докачку новой серии, пользователям необходимо сделать следующее:
(1) остановить скачивание,
(2) удалить старый торрент-файл у себя из клиента (старые серии удалять не надо),
(3) скачать новый торрент-файл из раздачи и запустить его у себя в клиенте вместо старого, при этом указать клиенту путь в старую папку, куда и должно происходить скачивание новых серий.
Ваш клиент при этом должен произвести хеширование (проверку) старой папки (если не производит сам - помогите ему сделать это), и будет докачивать только те серии, которых у Вас ещё нет. Старые серии при этом не удаляются, а продолжают раздаваться!
Eсли Вы уже посмотрели и удалили старые серии, то предотвратить повторную закачку старых серий можно, сняв галочки в соответсвующих местах при запуске нового торрента. По возможности, желательно не удалять старые серии как можно дольше чтобы релизёр не столько продолжал раздавать старые серии, сколько сконцентрироваться на новых.
Вне форума [Профиль] [ЛС]
Показать сообщения:    
Ответить на тему

Текущее время: Сегодня 07:30

Часовой пояс: GMT + 3



Вы не можете начинать темы
Вы не можете отвечать на сообщения
Вы не можете редактировать свои сообщения
Вы не можете удалять свои сообщения
Вы не можете голосовать в опросах
Вы не можете прикреплять файлы к сообщениям
Вы не можете скачивать файлы