Сегодня идет свободное скачивание без начисления Download

Связали Зою и поимели с двух сторон / To cute for porn Zoey Lane is destroyed by massive hard pounding cock in bondage (SexuallyBrok/en) [2016 г., BDSM, Bondage, Domination, Hardcore, SiteRip] (Zoey Lane, Matt Williams, Sergeant Miles)

Ответить на тему
 
Автор
Сообщение

XP1971 ®

Пол:

Стаж: 4 года 11 месяцев

Сообщений: 5749

Торрент-статистика

Пост 02-Окт-2016 22:58

[Цитировать]

-Связали Зою и поимели с двух сторон

To cute for porn Zoey Lane is destroyed by
massive hard pounding cock in bondage
-- Страна: USA
Режиссер: N/A
Год выпуска: 2016 г.
Перевод: Отсутствует
Студия: SexuallyBroken
Продолжительность: 00:10:35
Оригинальный аудиопоток: английский
Жанр: BDSM, Bondage, Domination, Hardcore-В ролях:
Zoey Lane, Matt Williams, Sergeant Miles-Оригинальное описание:
Zoey Lane is brutally fucked by massive cock. Huge screaming orgasms, left dazed, confused, broken.
To cute for porn Zoey Lane suffers complete destruction at the hands of massive brutal cock.
We can't describe in words how the nubile Zoey Lane gets completely own by cock in this Friday update. The look on her face tells the entire story. Bound standing, the boys of Sexually Broken deliver one of the hardest poundings of Zoey's brief life. With a belt around Zoey's beautiful soft neck and cock being thrusted down Zoey's tight throat, it doesn't take long for Zoey to be completely overwhelmed.
Sexually Broken is the only BaRS site in the world. Bondage and Rough Sex. We don't hit our models, we don't do any uncomfortable S&M. Professional creative bondage holds our girls in place while we bring the dick! Brutal throat fucking and hard pounding send our girls into subspace faster then anywhere you will ever see. We almost forgot, we don't continuously talk just to hear ourselves talk. We let the girl make all the noises. Nothing is more annoying that a bunch of guys that never shut the fuck up: Belt Bondage, Bent Over Tie, Big Dick, Blow job, Breath Play, Brunette, Choking, Cock Sucking, Deep Throat, Deepthroat Deep Throat, Extreme Rough Sex, Face Fucking, Gagging, Neck Play, Orgasm, Rough fucking, Rough Sex, Shaved, Small Tits, Super Deep Throat...-Описание на русском:
Зою Дэйн брутально трахнули с двух сторон. Присутствуют оргазмы с криками, героиня оставлена униженной, ошеломлённой, смущённой и морально сломленной.-
Контейнер: MP4
Аудио кодек: AAC
Cубтитры: отсутствуют
Качество видео: SiteRip
Видео кодек: MPEG4 AVC
Аудио: Advanced Audio | 48.0 KHz | 2 ch | 126.0 Kbps
Видео: AVC | 960х540 | 1400 Кbps | 23.976 fps | 0.113 bit/pixel

Media Info

Код:
Общее
Полное имя : SexuallyBroken - September 23, 2016 - Zoey Lane - Matt Williams - Sergeant Miles_[/*spam*/].mp4
Формат : MPEG-4
Профиль формата : Base Media
Идентификатор кодека : isom
Размер файла : 116 Мбайт
Продолжительность : 10 м.
Режим общего битрейта : Переменный
Общий поток : 1527 Кбит/сек
Программа кодирования : Lavf54.63.104
Видео
Идентификатор : 1
Формат : AVC
Формат/Информация : Advanced Video Codec
Профиль формата : [email protected]/*  */
Параметр CABAC формата : Да
Параметр ReFrames формата : 4 кадра
Идентификатор кодека : avc1
Идентификатор кодека/Информация : Advanced Video Coding
Продолжительность : 10 м.
Битрейт : 1400 Кбит/сек
Ширина : 960 пикселей
Высота : 540 пикселей
Соотношение сторон : 16:9
Режим частоты кадров : Постоянный
Частота кадров : 23,976 кадра/сек
Цветовое пространство : YUV
Субдискретизация насыщенности : 4:2:0
Битовая глубина : 8 бит
Тип развёртки : Прогрессивная
Бит/(Пиксели*Кадры) : 0.113
Размер потока : 106 Мбайт (91%)
Библиотека кодирования : x264 core 129 r2238 9c4ba4b
Настройки программы : cabac=1 / ref=3 / deblock=1:0:0 / analyse=0x3:0x113 / me=hex / subme=7 / psy=1 / psy_rd=1.00:0.00 / mixed_ref=1 / me_range=16 / chroma_me=1 / trellis=1 / 8x8dct=1 / cqm=0 / deadzone=21,11 / fast_pskip=1 / chroma_qp_offset=-2 / threads=6 / lookahead_threads=1 / sliced_threads=0 / nr=0 / decimate=1 / interlaced=0 / bluray_compat=0 / constrained_intra=0 / bframes=3 / b_pyramid=2 / b_adapt=1 / b_bias=0 / direct=1 / weightb=1 / open_gop=0 / weightp=2 / keyint=250 / keyint_min=23 / scenecut=40 / intra_refresh=0 / rc_lookahead=40 / rc=abr / mbtree=1 / bitrate=1400 / ratetol=1.0 / qcomp=0.60 / qpmin=0 / qpmax=69 / qpstep=4 / ip_ratio=1.40 / aq=1:1.00
Аудио
Идентификатор : 2
Формат : AAC
Формат/Информация : Advanced Audio Codec
Профиль формата : LC
Идентификатор кодека : 40
Продолжительность : 10 м.
Вид битрейта : Переменный
Битрейт : 126 Кбит/сек
Максимальный битрейт : 128 Кбит/сек
Каналы : 2 канала
Расположение каналов : Front: L R
Частота : 48,0 КГц
Метод сжатия : С потерями
Размер потока : 9,57 Мбайт (8%)

Скринлист


_________________
Вне форума [Профиль] [ЛС]
Похожие темы
Форум Тема Автор Торрент Отв. Посл. сообщение
./templates/default/images/folder_dl.gif Обучающее видео [GeekBrains] Сборник вебинаров(видеокурсов) связанных с программированием[RUS,2016] Omen
1 | 0

12 | 5469

35

2016-08-11 16:49
inneet Последнее
Показать сообщения:    
Ответить на тему

Текущее время: Сегодня 01:12

Часовой пояс: GMT + 3



Вы не можете начинать темы
Вы не можете отвечать на сообщения
Вы не можете редактировать свои сообщения
Вы не можете удалять свои сообщения
Вы не можете голосовать в опросах
Вы не можете прикреплять файлы к сообщениям
Вы не можете скачивать файлы