Сегодня идет свободное скачивание без начисления Download

Курс молодого бойца / Tironoot / Сезон: 1 / Серии: 6 из 6 (Benny Barbash, Uri Barbash) [1998, драма, TVRip] Original Heb + Rus, Heb Subs

Ответить на тему
 
Автор
Сообщение

Omen ®

Стаж: 6 лет 1 месяц

Сообщений: 184308

Торрент-статистика

Пост 02-Окт-2016 01:00

[Цитировать]

Курс молодого бойца / Tironoot
Год выпуска: 1998
Страна: Израиль
Жанр: драма
Продолжительность: 50
Перевод: Субтитры
Режиссёр: Benny Barbash, Uri Barbash
В ролях: Аки Авни, Голан Азулай, Шмиль Бен Ари, Ишай Голан, Ифтах Клейн, Ярон Матола, Арие Шарики, Дори Терер, Лиат Горен, Авишаг Рабинер
Описание: Герои сериала - молодые парни, призванные в Армию обороны Израиля и проходящие курс молодого бойца (тиронут) в элитной пехотной бригаде Гивати.
Доп. информация: Сериал "Курс молодого бойца" (3 сезона, 27 серий) был показан по израильскому телевидению в 1998-2001гг.
I сезон - 6 серий, 1998;
II сезон - 8 серий, 1999;
III сезон - 13 серий, 2000-2001.
IMDb
Сэмпл: http://www.mediafire.com/watch/7kwqz7g2xq03fk3/Sample_-_Tironoot.S01E01.avi
Качество: TVRip
Формат: AVI
Видео: XviD 720х540 4:3 25 кадров/сек 968 Кбит/сек
Аудио: MP3 48 КГц 2 канала 192 Кбит/сек
Субтитры: русские (softsub, ASS), иврит (hardsub)

Список серий

1. "Диснейленд".
2. "Первая ночь без мамы".
3. "Все за одного".
4. "Родитель, не секущий сына, ненавидит его".
5. "Не бывает весёлой любви".
6. "Отцы и дети".

MediaInfo

Общее
Полное имя : Tironoot.S01E01.avi
Формат : AVI
Формат/Информация : Audio Video Interleave
Размер файла : 392 Мбайт
Продолжительность : 46 м.
Общий поток : 1170 Кбит/сек
Библиотека кодирования : VirtualDub build 30080/release
Видео
Идентификатор : 0
Формат : MPEG-4 Visual
Профиль формата : Advanced Simple@L5
Параметр BVOP формата : 2
Параметр QPel формата : Нет
Параметр GMC формата : Без точки перехода
Параметр матрицы формата : Default (H.263)
Режим смешивания : Сжатый битовый поток
Идентификатор кодека : XVID
Идентификатор кодека/Подсказка : XviD
Продолжительность : 46 м.
Битрейт : 968 Кбит/сек
Ширина : 720 пикселей
Высота : 540 пикселей
Соотношение сторон : 4:3
Частота кадров : 25,000 кадров/сек
Цветовое пространство : YUV
Субдискретизация насыщенности : 4:2:0
Битовая глубина : 8 бит
Тип развёртки : Прогрессивная
Метод сжатия : С потерями
Бит/(Пиксели*Кадры) : 0.100
Размер потока : 324 Мбайт (83%)
Библиотека кодирования : XviD 1.2.1 (UTC 2008-12-04)
Аудио
Идентификатор : 1
Формат : MPEG Audio
Версия формата : Version 1
Профиль формата : Layer 3
Режим : Joint stereo
Идентификатор кодека : 55
Идентификатор кодека/Подсказка : MP3
Продолжительность : 46 м.
Вид битрейта : Постоянный
Битрейт : 192 Кбит/сек
Каналы : 2 канала
Частота : 48,0 КГц
Метод сжатия : С потерями
Размер потока : 64,3 Мбайт (16%)
Выравнивание : Разделение по промежуткам
Продолжительность промежутка : 40 мс. (1,00 видеокадр)
Время предзагрузки промежутка : 500 мс.

Скриншоты

Внимание! Раздача ведётся путём добавления новых серий

Внимание! Раздача ведётся путём добавления новых серий; при каждом добавлении создаётся новый торрент. Чтобы начать докачку новой серии, пользователям необходимо сделать следующее:
(1) остановить скачивание,
(2) удалить старый торрент у себя из клиента (старые серии удалять не надо),
(3) скачать новый торрент и запустить его у себя в клиенте вместо старого, при этом указать клиенту путь в старую папку куда и должно происходить скачивание новых серий.
Ваш клиент при этом должен произвести хеширование (проверку) старой папки (если не производит сам - помогите ему сделать это), и будет докачивать только те серии которых у вас ещё нет. Старые серии при этом не удаляются, а продолжают раздаваться!
Eсли вы уже удалили старые серии, то предотвратить повторную закачку старых серий можно, отжав галочку в соответствующих местах при запуске нового торрента. По возможности, желательно не удалять старые серии как можно дольше чтобы релизёр не столько продолжал раздавать старые серии, а смог сконцентрироваться на новых.
Вне форума [Профиль] [ЛС]
Показать сообщения:    
Ответить на тему

Текущее время: Сегодня 17:58

Часовой пояс: GMT + 3



Вы не можете начинать темы
Вы не можете отвечать на сообщения
Вы не можете редактировать свои сообщения
Вы не можете удалять свои сообщения
Вы не можете голосовать в опросах
Вы не можете прикреплять файлы к сообщениям
Вы не можете скачивать файлы