Сегодня идет свободное скачивание без начисления Download

Игра не доводит до добра / Very exciting anal sex games (N/A / DollsPorn / WTFPass) [2016 г., Blowjob, Anal Sex, Brunettes, WEB-DL] (Cindy Dee)

Ответить на тему
 
Автор
Сообщение

XP1971 ®

Пол:

Стаж: 4 года 11 месяцев

Сообщений: 5733

Торрент-статистика

Пост 01-Окт-2016 23:24

[Цитировать]

-Игра не доводит до добра

Very exciting anal sex games
-- Страна: USA
Режиссер: N/A
Год выпуска: 2016 г.
Перевод: Отсутствует
Студия: DollsPorn / WTFPass
Продолжительность: 00:27:34
Жанр: Blowjob, Anal Sex, Brunettes
Оригинальный аудиопоток: английский-В ролях:
Cindy Dee-Оригинальное описание:
The girl Cindy decided to play hide and seek with her boyfriend. Blindfolded her eyes, let it mean to seek the boy and found a dick in her mouth. The game turned out to be so interesting that it came to anal sex.-Описание на русском:
Девка Синди решила поиграть в жмурки со своим парнем. Завязали ей глаза, давай она значит искать паренька, а нашла хер в рот. Игра оказалась настолько интересной, что дошло дело до анала.
P.S. Носки у девки ужасные до отвращения.-
Контейнер: MP4
Аудио кодек: AAC
Видео кодек: AVC
Cубтитры: отсутствуют
Качество видео: WEB-DL
Аудио: Advanced Audio | 44.1 KHz | 2 ch | 63.8 Kbps
Видео: AVC | 768х432 | 749 Кbps | 29.97 fps | 0.075 bit/pixel

Media Info

Код:
Общее
Полное имя : Very exciting anal sex games_[/*spam*/].mp4
Формат : MPEG-4
Профиль формата : Base Media
Идентификатор кодека : isom
Размер файла : 162 Мбайт
Продолжительность : 27 м.
Общий поток : 821 Кбит/сек
Программа кодирования : Lavf56.40.101
Видео
Идентификатор : 1
Формат : AVC
Формат/Информация : Advanced Video Codec
Профиль формата : [email protected]/*  */
Параметр CABAC формата : Да
Параметр ReFrames формата : 5 кадров
Идентификатор кодека : avc1
Идентификатор кодека/Информация : Advanced Video Coding
Продолжительность : 27 м.
Битрейт : 749 Кбит/сек
Ширина : 768 пикселей
Высота : 432 пикселя
Соотношение сторон : 16:9
Режим частоты кадров : Постоянный
Частота кадров : 29,970 кадров/сек
Цветовое пространство : YUV
Субдискретизация насыщенности : 4:2:0
Битовая глубина : 8 бит
Тип развёртки : Прогрессивная
Бит/(Пиксели*Кадры) : 0.075
Размер потока : 148 Мбайт (91%)
Библиотека кодирования : x264 core 148 r2638 7599210
Настройки программы : cabac=1 / ref=5 / deblock=1:0:0 / analyse=0x3:0x113 / me=umh / subme=8 / psy=1 / psy_rd=1.00:0.00 / mixed_ref=1 / me_range=16 / chroma_me=1 / trellis=1 / 8x8dct=1 / cqm=0 / deadzone=21,11 / fast_pskip=1 / chroma_qp_offset=2 / threads=6 / lookahead_threads=1 / sliced_threads=0 / nr=0 / decimate=1 / interlaced=0 / bluray_compat=0 / constrained_intra=0 / bframes=3 / b_pyramid=2 / b_adapt=2 / b_bias=0 / direct=3 / weightb=1 / open_gop=0 / weightp=2 / keyint=150 / keyint_min=15 / scenecut=40 / intra_refresh=0 / rc_lookahead=50 / rc=crf / mbtree=1 / crf=24.0 / qcomp=0.60 / qpmin=0 / qpmax=69 / qpstep=4 / vbv_maxrate=3000 / vbv_bufsize=3000 / crf_max=0.0 / nal_hrd=none / filler=0 / ip_ratio=1.40 / aq=1:1.00
Аудио
Идентификатор : 2
Формат : AAC
Формат/Информация : Advanced Audio Codec
Профиль формата : LC
Идентификатор кодека : 40
Продолжительность : 27 м.
Duration_LastFrame : -10 мс.
Вид битрейта : Постоянный
Битрейт : 63,8 Кбит/сек
Каналы : 2 канала
Расположение каналов : Front: C
Частота : 44,1 КГц
Метод сжатия : С потерями
Размер потока : 12,6 Мбайт (8%)

Скринлист


_________________
Вне форума [Профиль] [ЛС]
Показать сообщения:    
Ответить на тему

Текущее время: Сегодня 20:11

Часовой пояс: GMT + 3



Вы не можете начинать темы
Вы не можете отвечать на сообщения
Вы не можете редактировать свои сообщения
Вы не можете удалять свои сообщения
Вы не можете голосовать в опросах
Вы не можете прикреплять файлы к сообщениям
Вы не можете скачивать файлы