Сегодня идет свободное скачивание без начисления Download

Инспектор Бэнкс / DCI Banks / Сезон: 6 / Серии: 1-4 из 6 (Robert Quinn, Craig Pickles) [2016, Великобритания, Детектив, криминальная драма, HDTVRip 720p] Original + Rus Sub

Ответить на тему
 
Автор
Сообщение

Omen ®

Стаж: 5 лет 10 месяцев

Сообщений: 184329

Торрент-статистика

Пост 30-Сен-2016 01:00

[Цитировать]

Инспектор Бэнкс / DCI Banks
Год выпуска: 2016
Страна: Великобритания
Жанр: Детектив, криминальная драма
Продолжительность: 00:45:00
Перевод: Субтитры ((Елена Антонова, Карина Жунусова, Alex_ander, ringer, Ирина Яковлева, Валентина Перелыгина, yurabukin)
Релиз подготовлен студией перевода Британское кино и сериалы (БКиС)
Режиссёр: Robert Quinn, Craig Pickles
В ролях:
Старший инспектор Алан Бэнкс - Стивен Томпкинсон
Инспектор Хелен Мортон - Кэролин Катц
Детектив сержант Анни Кэббот - Андреа Лоу
Детектив констебль Кен Блэкстоун - Джек Дим
Описание: Серии 1-2. В каждой капле крови.
Темнокожий драгдилер найден мёртвым в лесу, на том месте, где некогда покончила с собой девушка. Расследование Бэнкса и команды ведёт в сторону раскрытия мотивов действий отца этой девушки, брата и работодателя убитого, а также семьи последнего.
Серии 3-4. Частица сердца. Бэнкс расследует исчезновение китайца Сюня Ли, создавшего в Англии процветающий бизнес. Хелен стремится стать старшим инспектором. Энни нарушает приказы.
Сэмпл: 1 серии
Качество: HDTVRip 720p
Контейнер: MKV
Видео: AVC, 1280x720 (1.778), 25.000 fps, ~1750 kbps
Аудио: AAC, 48 kHz, 2 ch, 192 kbps
Субтитры: софтсаб

MediaInfo

Complete name : DCI Banks S06 720p\DCI.Banks.S06E01.720p.mkv
Format : Matroska
Format version : Version 2
File size : 654 MiB
Duration : 45 min 59 s
Overall bit rate : 1 987 kb/s
Writing application : x264.exe
Writing library : mkv2rls x264-tv version built on 2016. apr. 10
Video
ID : 1
Format : AVC
Format/Info : Advanced Video Codec
Format profile : High@L4.1
Format settings, CABAC : Yes
Format settings, ReFrames : 5 frames
Codec ID : V_MPEG4/ISO/AVC
Duration : 45 min 59 s
Bit rate : 1 756 kb/s
Width : 1 280 pixels
Height : 720 pixels
Display aspect ratio : 16:9
Frame rate mode : Constant
Frame rate : 25.000 FPS
Color space : YUV
Chroma subsampling : 4:2:0
Bit depth : 8 bits
Scan type : Progressive
Bits/(Pixel*Frame) : 0.076
Stream size : 578 MiB (88%)
Writing library : x264 core 148 r2705 3f5ed56
Encoding settings : cabac=1 / ref=5 / deblock=1:-2:-2 / analyse=0x3:0x113 / me=umh / subme=8 / psy=1 / psy_rd=1.05:0.00 / mixed_ref=1 / me_range=16 / chroma_me=1 / trellis=1 / 8x8dct=1 / cqm=0 / deadzone=21,11 / fast_pskip=1 / chroma_qp_offset=-2 / threads=18 / lookahead_threads=3 / sliced_threads=0 / nr=0 / decimate=1 / interlaced=0 / bluray_compat=0 / constrained_intra=0 / bframes=3 / b_pyramid=2 / b_adapt=2 / b_bias=0 / direct=3 / weightb=1 / open_gop=0 / weightp=2 / keyint=250 / keyint_min=25 / scenecut=40 / intra_refresh=0 / rc_lookahead=50 / rc=crf / mbtree=1 / crf=18.0 / qcomp=0.60 / qpmin=0 / qpmax=69 / qpstep=4 / ip_ratio=1.40 / aq=1:0.70
Language : English
Default : Yes
Forced : No
Audio
ID : 2
Format : AC-3
Format/Info : Audio Coding 3
Mode extension : CM (complete main)
Format settings, Endianness : Big
Codec ID : A_AC3
Duration : 45 min 59 s
Bit rate mode : Constant
Bit rate : 192 kb/s
Channel(s) : 6 channels
Channel(s)_Original : 2 channels
Channel positions : Front: L R
Sampling rate : 48.0 kHz
Frame rate : 31.250 FPS (1536 spf)
Compression mode : Lossy
Stream size : 63.2 MiB (10%)
Language : English
Default : Yes
Forced : No

Скриншоты

Вне форума [Профиль] [ЛС]
Показать сообщения:    
Ответить на тему

Текущее время: Сегодня 14:45

Часовой пояс: GMT + 3



Вы не можете начинать темы
Вы не можете отвечать на сообщения
Вы не можете редактировать свои сообщения
Вы не можете удалять свои сообщения
Вы не можете голосовать в опросах
Вы не можете прикреплять файлы к сообщениям
Вы не можете скачивать файлы