Today is a free download without charge Download

[Gosenzo-sama Banbanzai! / Долгих лет жизни, предки!][FLAC (tracks)][lossless][OST][1CD]

Reply to topic
 
Author
Message

Omen ®

Longevity: 7 years 6 months

Posts: 181087

Торрент-статистика

Post 30-Sep-2016 01:00

[Quote]

Долгих лет жизни, предки!Общие характеристики:
Производство:
Год выпуска: 1993
Формат: FLAC
Частота: 44100Гц
Продолжительность: 21 треков - 45:24
-Альбом:

1993 - OST [BELL-590CD]

OST
Список треков:
01. Orphan Bird [0:29]
02. Theme Song (Gosenzo-sama Banbanzai!) [4:22]
03. Nightmare on Reclaimed Land [2:54]
04. Tamiko's Transformation [0:36]
05. Flight Theme (from ep1) [3:21]
06. Human Bullet Game [0:44]
07. Elopement Theme (from ep2) [2:17]
08. Oh Kanda River [0:41]
09. Endless Realism - Realistic Detective Agency (Japan) Theme [2:15]
10. Intimidation Theme (from ep3) [1:54]
11. Improper Blood Relations [1:55]
12. The Guard Dog of Time [2:51]
13. Family Memories-At Oarai Beach [1:59]
14. Family Reunion Theme (from ep4) [1:39]
15. Detectives Do Not Believe in Love [2:54]
16. Yellow Airship [0:56]
17. Family Breakup Theme (from ep5) [2:59]
18. Street-side Soba Song [3:11]
19. Maroko Restrospective I [2:05]
20. Maroko Restrospective II [0:29]
21. Wandering Theme (from ep6) [4:52]-
Проверка:

Открыть

1993 - OST

ЕАС Лог

Exact Audio Copy V1.1 from 23. June 2015
EAC extraction logfile from 29. September 2016, 19:36
Kawai Kenji / Gosenzo-sama Banbanzai! OST
Used drive : PLEXTOR CD-R PREMIUM2 Adapter: 1 ID: 1
Read mode : SecureUtilize accurate stream : YesDefeat audio cache : YesMake use of C2 pointers : No
Read offset correction : 30Overread into Lead-In and Lead-Out : YesFill up missing offset samples with silence : YesDelete leading and trailing silent blocks : NoNull samples used in CRC calculations : YesUsed interface : Native Win32 interface for Win NT & 2000Gap handling : Appended to previous track
Used output format : User Defined EncoderSelected bitrate : 1024 kBit/sQuality : HighAdd ID3 tag : NoCommand line compressor : C:\Program Files (x86)\Exact Audio Copy RIP\Flac\flac.exeAdditional command line options : -V -8 -T "Genre=%genre%" -T "Artist=%artist%" -T "Title=%title%" -T "Album=%albumtitle%" -T "Date=%year%" -T "Tracknumber=%tracknr%" -T "Comment=%comment%" %source%
TOC of the extracted CD
Track | Start | Length | Start sector | End sector --------------------------------------------------------- 1 | 0:00.00 | 0:29.15 | 0 | 2189 2 | 0:29.15 | 4:22.22 | 2190 | 21861 3 | 4:51.37 | 2:54.33 | 21862 | 34944 4 | 7:45.70 | 0:35.67 | 34945 | 37636 5 | 8:21.62 | 3:20.38 | 37637 | 52674 6 | 11:42.25 | 0:44.25 | 52675 | 55999 7 | 12:26.50 | 2:17.10 | 56000 | 66284 8 | 14:43.60 | 0:41.12 | 66285 | 69371 9 | 15:24.72 | 2:15.23 | 69372 | 79519 10 | 17:40.20 | 1:54.12 | 79520 | 88081 11 | 19:34.32 | 1:54.43 | 88082 | 96674 12 | 21:29.00 | 2:51.10 | 96675 | 109509 13 | 24:20.10 | 1:59.15 | 109510 | 118449 14 | 26:19.25 | 1:39.02 | 118450 | 125876 15 | 27:58.27 | 2:53.43 | 125877 | 138894 16 | 30:51.70 | 0:56.27 | 138895 | 143121 17 | 31:48.22 | 2:58.48 | 143122 | 156519 18 | 34:46.70 | 3:10.65 | 156520 | 170834 19 | 37:57.60 | 2:04.47 | 170835 | 180181 20 | 40:02.32 | 0:29.35 | 180182 | 182391 21 | 40:31.67 | 4:52.23 | 182392 | 204314
Track 1
Filename D:\Work\RIPs\01 - Orphan Bird.wav
Pre-gap length 0:00:02.00
Peak level 58.5 % Extraction speed 3.5 X Track quality 99.6 % Test CRC 2E651F73 Copy CRC 2E651F73 Accurately ripped (confidence 2) [D8FA26EE] (AR v2) Copy OK
Track 2
Filename D:\Work\RIPs\02 - Theme Song (Gosenzo-sama Banbanzai!).wav
Peak level 100.0 % Extraction speed 8.0 X Track quality 99.9 % Test CRC 01427CF4 Copy CRC 01427CF4 Accurately ripped (confidence 2) [A1B87645] (AR v2) Copy OK
Track 3
Filename D:\Work\RIPs\03 - Nightmare on Reclaimed Land.wav
Pre-gap length 0:00:00.02
Peak level 69.6 % Extraction speed 9.6 X Track quality 100.0 % Test CRC 8DA5C064 Copy CRC 8DA5C064 Accurately ripped (confidence 2) [AF18241D] (AR v2) Copy OK
Track 4
Filename D:\Work\RIPs\04 - Tamiko's Transformation.wav
Peak level 59.1 % Extraction speed 8.0 X Track quality 100.0 % Test CRC BED17772 Copy CRC BED17772 Accurately ripped (confidence 2) [DBA3D18D] (AR v2) Copy OK
Track 5
Filename D:\Work\RIPs\05 - Flight Theme (from ep1).wav
Pre-gap length 0:00:00.01
Peak level 99.0 % Extraction speed 8.9 X Track quality 99.9 % Test CRC 312AFAC3 Copy CRC 312AFAC3 Accurately ripped (confidence 2) [B4DBC368] (AR v2) Copy OK
Track 6
Filename D:\Work\RIPs\06 - Human Bullet Game.wav
Pre-gap length 0:00:00.02
Peak level 99.4 % Extraction speed 8.7 X Track quality 100.0 % Test CRC 4B971527 Copy CRC 4B971527 Accurately ripped (confidence 2) [7E9DF6C4] (AR v2) Copy OK
Track 7
Filename D:\Work\RIPs\07 - Elopement Theme (from ep2).wav
Peak level 99.6 % Extraction speed 8.7 X Track quality 99.9 % Test CRC B1E20619 Copy CRC B1E20619 Accurately ripped (confidence 2) [65F4BE32] (AR v2) Copy OK
Track 8
Filename D:\Work\RIPs\08 - Oh Kanda River.wav
Peak level 42.4 % Extraction speed 5.4 X Track quality 99.7 % Test CRC 701291E0 Copy CRC 701291E0 Accurately ripped (confidence 2) [75C9DCB2] (AR v2) Copy OK
Track 9
Filename D:\Work\RIPs\09 - Endless Realism - Realistic Detective Agency (Japan) Theme.wav
Pre-gap length 0:00:00.01
Peak level 95.6 % Extraction speed 11.1 X Track quality 100.0 % Test CRC 7EB28440 Copy CRC 7EB28440 Accurately ripped (confidence 2) [922D5F29] (AR v2) Copy OK
Track 10
Filename D:\Work\RIPs\10 - Intimidation Theme (from ep3).wav
Peak level 100.0 % Extraction speed 8.8 X Track quality 99.9 % Test CRC 3418D97A Copy CRC 3418D97A Accurately ripped (confidence 2) [FC887B81] (AR v2) Copy OK
Track 11
Filename D:\Work\RIPs\11 - Improper Blood Relations.wav
Peak level 74.2 % Extraction speed 11.4 X Track quality 100.0 % Test CRC 371DBC89 Copy CRC 371DBC89 Accurately ripped (confidence 2) [4E907840] (AR v2) Copy OK
Track 12
Filename D:\Work\RIPs\12 - The Guard Dog of Time.wav
Peak level 72.9 % Extraction speed 12.1 X Track quality 100.0 % Test CRC 7E8181A3 Copy CRC 7E8181A3 Accurately ripped (confidence 2) [841CAAB4] (AR v2) Copy OK
Track 13
Filename D:\Work\RIPs\13 - Family Memories-At Oarai Beach.wav
Peak level 65.8 % Extraction speed 9.4 X Track quality 99.9 % Test CRC 341EF744 Copy CRC 341EF744 Accurately ripped (confidence 2) [FD09B851] (AR v2) Copy OK
Track 14
Filename D:\Work\RIPs\14 - Family Reunion Theme (from ep4).wav
Peak level 98.7 % Extraction speed 12.0 X Track quality 100.0 % Test CRC BE7B5255 Copy CRC BE7B5255 Accurately ripped (confidence 2) [1BEF9013] (AR v2) Copy OK
Track 15
Filename D:\Work\RIPs\15 - Detectives Do Not Believe in Love.wav
Peak level 71.3 % Extraction speed 12.9 X Track quality 100.0 % Test CRC 9B316805 Copy CRC 9B316805 Accurately ripped (confidence 2) [81470D4B] (AR v2) Copy OK
Track 16
Filename D:\Work\RIPs\16 - Yellow Airship.wav
Pre-gap length 0:00:00.02
Peak level 94.4 % Extraction speed 11.3 X Track quality 100.0 % Test CRC 82047B6D Copy CRC 82047B6D Accurately ripped (confidence 2) [0783573C] (AR v2) Copy OK
Track 17
Filename D:\Work\RIPs\17 - Family Breakup Theme (from ep5).wav
Pre-gap length 0:00:00.01
Peak level 99.0 % Extraction speed 11.2 X Track quality 99.9 % Test CRC B48F2465 Copy CRC B48F2465 Accurately ripped (confidence 2) [90DBCD4D] (AR v2) Copy OK
Track 18
Filename D:\Work\RIPs\18 - Street-side Soba Song.wav
Peak level 79.1 % Extraction speed 11.6 X Track quality 99.9 % Test CRC 1CE344B6 Copy CRC 1CE344B6 Accurately ripped (confidence 2) [E3296C78] (AR v2) Copy OK
Track 19
Filename D:\Work\RIPs\19 - Maroko Restrospective I.wav
Pre-gap length 0:00:00.03
Peak level 56.8 % Extraction speed 13.6 X Track quality 100.0 % Test CRC 1C354869 Copy CRC 1C354869 Accurately ripped (confidence 2) [30359A7C] (AR v2) Copy OK
Track 20
Filename D:\Work\RIPs\20 - Maroko Restrospective II.wav
Peak level 55.5 % Extraction speed 9.9 X Track quality 100.0 % Test CRC 06BA899E Copy CRC 06BA899E Accurately ripped (confidence 2) [8E43FDD6] (AR v2) Copy OK
Track 21
Filename D:\Work\RIPs\21 - Wandering Theme (from ep6).wav
Pre-gap length 0:00:00.02
Peak level 100.0 % Extraction speed 15.0 X Track quality 100.0 % Test CRC 8FF0CA89 Copy CRC 8FF0CA89 Accurately ripped (confidence 2) [8506B966] (AR v2) Copy OK
All tracks accurately ripped
No errors occurred
End of status report
---- CUETools DB Plugin V2.1.6
[CTDB TOCID: 9BkX6BMcCz_eU7l5Jmit_lrX4F0-] foundSubmit result: already submittedTrack | CTDB Status 1 | (6/6) Accurately ripped 2 | (6/6) Accurately ripped 3 | (6/6) Accurately ripped 4 | (6/6) Accurately ripped 5 | (6/6) Accurately ripped 6 | (6/6) Accurately ripped 7 | (6/6) Accurately ripped 8 | (6/6) Accurately ripped 9 | (6/6) Accurately ripped 10 | (6/6) Accurately ripped 11 | (6/6) Accurately ripped 12 | (6/6) Accurately ripped 13 | (6/6) Accurately ripped 14 | (6/6) Accurately ripped 15 | (6/6) Accurately ripped 16 | (6/6) Accurately ripped 17 | (6/6) Accurately ripped 18 | (6/6) Accurately ripped 19 | (6/6) Accurately ripped 20 | (6/6) Accurately ripped 21 | (6/6) Accurately ripped
==== Log checksum CC4BD3C47CE402506FA3D95AB3594BC51E18A8E3125D2407E7A6706A439F2CF3 ====

auCDtect Лог

-----------------------
DON'T MODIFY THIS FILE
-----------------------
PERFORMER: auCDtect Task Manager, ver. 1.6.0 RC1 build 1.6.0.1Copyright (c) 2008-2010 y-soft. All rights reservedhttp://y-soft.org
ANALYZER: auCDtect: CD records authenticity detector, version 0.8.2Copyright (c) 2004 Oleg Berngardt. All rights reserved.Copyright (c) 2004 Alexander Djourik. All rights reserved.
FILE: 12 - The Guard Dog of Time.flac Size: 14989088 Hash: 9225C138A44A08C5B99641090A8A2C8D Accuracy: -m0 Conclusion: CDDA 99% Signature: 18E44AACC102B5652327DCBFD527D7052087D73DFILE: 11 - Improper Blood Relations.flac Size: 10036712 Hash: 9AB6618B128EBAC5916BBC8DF36EB08A Accuracy: -m0 Conclusion: CDDA 100% Signature: ADF2160D68170F44BA8909CE5C58E2AF127431C4FILE: 10 - Intimidation Theme (from ep3).flac Size: 12794843 Hash: 06936C352540A25277BDF707ABEE8490 Accuracy: -m0 Conclusion: CDDA 100% Signature: 342A5F61AAAB8F0C3B1658419EE904FA5B14993BFILE: 09 - Endless Realism - Realistic Detective Agency (Japan) Theme.flac Size: 13491894 Hash: C3D7D33061524F305B686288F426F81B Accuracy: -m0 Conclusion: CDDA 100% Signature: 267DC307DE35D24F5F066B44015CA14EE23F514CFILE: 08 - Oh Kanda River.flac Size: 3503662 Hash: 2E4FE0327D9A7D7C8B9A38C7B152C485 Accuracy: -m0 Conclusion: CDDA 100% Signature: D8E1E01EE4BC06AF06D981653610D746ACFC3722FILE: 07 - Elopement Theme (from ep2).flac Size: 15403757 Hash: 0CFD8023FE452EBE8EA63D6FE40B34F2 Accuracy: -m0 Conclusion: CDDA 58% Signature: 78A97626CCCCDE35FEA65A5D09FBA838FCEB9A62FILE: 06 - Human Bullet Game.flac Size: 4658934 Hash: 29BA623C9A7F878E9596D213CC77F731 Accuracy: -m0 Conclusion: CDDA 100% Signature: 4413FF3222A3FE2C9E3580562F433E33D2385515FILE: 05 - Flight Theme (from ep1).flac Size: 23269535 Hash: EF8E8C28CBA91324853645BF35794367 Accuracy: -m0 Conclusion: CDDA 99% Signature: 964C9ABE7C24850681BBB6C842E01C5332DE8612FILE: 04 - Tamiko's Transformation.flac Size: 3002269 Hash: C6A59F53A25FE3A05956BFAAA70A5723 Accuracy: -m0 Conclusion: CDDA 99% Signature: 79AF5DB6F35911CE28A76B89EA19349B8A5797EBFILE: 03 - Nightmare on Reclaimed Land.flac Size: 15107015 Hash: F9027FA325513ACF3A3E13859FE3D1C8 Accuracy: -m0 Conclusion: CDDA 100% Signature: 52AD39E4B1CA2799407C118A0F25A29626A9AE4AFILE: 02 - Theme Song (Gosenzo-sama Banbanzai!).flac Size: 31496315 Hash: 8023BE220B0884FDFD969DDFE00FD9C6 Accuracy: -m0 Conclusion: CDDA 100% Signature: 0561A863250D4A80B1CD13094B46034F8A4D7AE9FILE: 01 - Orphan Bird.flac Size: 2619520 Hash: 3C2092694D02B3E943E2F99DB92B3F88 Accuracy: -m0 Conclusion: CDDA 100% Signature: 3742660D6341452666F86BC475EECDF5D5C55CE2FILE: 21 - Wandering Theme (from ep6).flac Size: 30988786 Hash: 2C7FB2E014598E6C02D059B4A9CC9763 Accuracy: -m0 Conclusion: CDDA 99% Signature: CAA35DAEB8209B3EF1D7E9B8092CD0AFB736865CFILE: 20 - Maroko Restrospective II.flac Size: 2200882 Hash: B470A73DBC3F71EE9D33CE6C24C3CDC1 Accuracy: -m0 Conclusion: CDDA 100% Signature: 9A1309F38A594E7D4EAAAF087CC95A327F3C7278FILE: 19 - Maroko Restrospective I.flac Size: 11729505 Hash: 749DC204A52ECD0E03C6CF1661296AF3 Accuracy: -m0 Conclusion: CDDA 100% Signature: 85A7A0AD1833D9648A97BB698211DE4907CD1DECFILE: 18 - Street-side Soba Song.flac Size: 16740257 Hash: 99F0859747281858E37DCA9772CACA07 Accuracy: -m0 Conclusion: CDDA 100% Signature: 1C8895C680FA5C3614DD41A8262121368A7A8045FILE: 17 - Family Breakup Theme (from ep5).flac Size: 18279597 Hash: B5DF89C78A6F92C320743587E1551BC7 Accuracy: -m0 Conclusion: CDDA 100% Signature: 731AE4905C5F06DCCC9A1EC44BF7C46EFDC1E0F6FILE: 16 - Yellow Airship.flac Size: 5575276 Hash: 2A0935ABC602C005DA040C7C2B270153 Accuracy: -m0 Conclusion: CDDA 100% Signature: CAD198E8B0B598413AB27494F52C3144BE17B4A2FILE: 15 - Detectives Do Not Believe in Love.flac Size: 17046163 Hash: 66B12C0B665656F3CF81DF35A9B2E9F7 Accuracy: -m0 Conclusion: CDDA 100% Signature: EC2C29FCF622BB7703B2E6DADEFB00D56A8BDD9BFILE: 14 - Family Reunion Theme (from ep4).flac Size: 11098243 Hash: 65FF3C8C60A5C98ACF52F8F96FD4DE2E Accuracy: -m0 Conclusion: CDDA 100% Signature: 9EB6DAB80F552674683EE645DCEF101BA7FFC649FILE: 13 - Family Memories-At Oarai Beach.flac Size: 11362693 Hash: 72FAAB01CDF460C086798E764F52F8EF Accuracy: -m0 Conclusion: CDDA 99% Signature: 88B8229941215CCDA43F06D1F8729430A1B1B897

Audition Спектр

-Дополнительно: Приятного прослушивания
Other forum [Profile] [PM]
Display posts from previous:    
Reply to topic

The time now is: Today 10:45

All times are GMT + 3 Hours



You cannot post new topics in this forum
You cannot reply to topics in this forum
You cannot edit your posts in this forum
You cannot delete your posts in this forum
You cannot vote in polls in this forum
You cannot attach files in this forum
You cannot download files in this forum