Сегодня идет свободное скачивание без начисления Download

Лонгмайр / Longmire / Сезон: 2 / Серии: 1 из 13 (Кристофер Чулак, Джеймс М. Муро, Майкл Оффер) [2013, боевик, драма, криминал, вестерн, WEB-DLRip] MVO (ViruseProject)

Ответить на тему
 
Автор
Сообщение

Omen ®

Стаж: 5 лет 7 месяцев

Сообщений: 185412

Торрент-статистика

Пост 30-Сен-2016 01:00

[Цитировать]

Лонгмайр / Longmire
Год выпуска: 2013
Страна: США
Жанр: боевик, драма, криминал, вестерн
Продолжительность: ~00:44:00
Перевод: Профессиональный (многоголосый закадровый) ViruseProject
Русские субтитры: нет
Режиссёр: Кристофер Чулак, Джеймс М. Муро, Майкл Оффер
В ролях: Роберт Тейлор, Кэти Сакхофф, Лу Даймонд Филлипс, Кэссиди Фриман, Бэйли Чейз, Адам Бартли, Луанна Стефенс, Луис Хертэм, Эй Мартинез, Робб Мун и др.
Описание: Уолт Лонгмайр — шериф одного небольшого провинциального городка, расположенного в так называемом «Штате равноправия», то есть в Вайоминге. Его психологический портрет отличается весьма положительными характеристиками — порядочный, спокойный, честный, скромный, с хорошим чувством юмора. Прошел всего лишь год с той поры, как Уолт стал вдовцом. Пережить горечь этой утраты шерифу помогает его работа, которой он целиком и полностью отдает все свои силы и время. Полгода тому назад в городок прибыла Вик, ставшая первым замом и главной помощницей Уолта Лонгмайра. К слову, ранее эта симпатичная девушка работала детективом в убойном отделе полиции Филадельфии. Вместе эта парочка следит за порядком на вверенной им территории, и в свободное время тоже
ВНИМАНИЕ! Присутствует реклама.



скачать СЕМПЛ с multi-up
Качество: WEB-DLRip
Формат: AVI
Видео кодек: XviD
Аудио кодек: MP3
Видео: 720x400 (1.80:1), 23.976 fps, XviD build 50 ~1901 kbps avg, 0.28 bit/pixel
Аудио: 48 kHz, MPEG Layer 3, 2 ch, ~192.00 kbps avg

MediaInfo

General
Complete name : D:\Longmire.S02.ViruseProject\Longmire.S02.ViruseProject\Longmire.S02E01.ViruseProject.avi
Format : AVI
Format/Info : Audio Video Interleave
File size : 660 MiB
Duration : 43 min 53 s
Overall bit rate : 2 103 kb/s
Writing application : Lavf52.39.2
Writing library : VirtualDub build 35491/release
Video
ID : 0
Format : MPEG-4 Visual
Format profile : Advanced Simple@L5
Format settings, BVOP : 1
Format settings, QPel : No
Format settings, GMC : No warppoints
Format settings, Matrix : Default (MPEG)
Codec ID : XVID
Codec ID/Hint : XviD
Duration : 43 min 53 s
Bit rate : 1 902 kb/s
Width : 720 pixels
Height : 400 pixels
Display aspect ratio : 16:9
Frame rate : 23.976 (23976/1000) FPS
Color space : YUV
Chroma subsampling : 4:2:0
Bit depth : 8 bits
Scan type : Progressive
Compression mode : Lossy
Bits/(Pixel*Frame) : 0.275
Stream size : 597 MiB (90%)
Writing library : XviD 1.2.1 (UTC 2008-12-04)
Audio
ID : 1
Format : MPEG Audio
Format version : Version 1
Format profile : Layer 3
Mode : Joint stereo
Mode extension : MS Stereo
Codec ID : 55
Codec ID/Hint : MP3
Duration : 43 min 53 s
Bit rate mode : Constant
Bit rate : 192 kb/s
Channel(s) : 2 channels
Sampling rate : 48.0 kHz
Compression mode : Lossy
Stream size : 60.3 MiB (9%)
Alignment : Split accross interleaves
Interleave, duration : 42 ms (1.00 video frame)
Interleave, preload duration : 500 ms

Скриншоты

Вне форума [Профиль] [ЛС]
Показать сообщения:    
Ответить на тему

Текущее время: Сегодня 13:22

Часовой пояс: GMT + 3



Вы не можете начинать темы
Вы не можете отвечать на сообщения
Вы не можете редактировать свои сообщения
Вы не можете удалять свои сообщения
Вы не можете голосовать в опросах
Вы не можете прикреплять файлы к сообщениям
Вы не можете скачивать файлы