Сегодня идет свободное скачивание без начисления Download

Изгоняющий дьявола / The Exorcist / Сезон: 1 / Серии: 1 из 13 (Майкл Нанкин, Джейсон Энслер, Руперт Уайатт) [2016, ужасы, триллер, WEB-DLRip] MVO (ViruseProject)

Ответить на тему
 
Автор
Сообщение

Omen ®

Стаж: 5 лет 9 месяцев

Сообщений: 184433

Торрент-статистика

Пост 29-Сен-2016 01:00

[Цитировать]

Изгоняющий дьявола / The Exorcist
Год выпуска: 2016
Страна: США
Жанр: ужасы, триллер
Продолжительность: ~00:46:00
Перевод: Профессиональный (двухголосый закадровый) ViruseProject
Русские субтитры: нет
Режиссёр: Майкл Нанкин, Джейсон Энслер, Руперт Уайатт
В ролях: Альфонсо Эррера, Бен Дэниелс, Ханна Касулка, Джина Дэвис, Брианна Хоуи, Алан Рак и др.
Описание: Сериал, основанный на романе У. Блэтти, рассказывает о священнике - отце Маркусе, который проводит обряды экзорцизма, стараясь спасти невинные души, но проигрывая схватку за схваткой. Неведомые силы приводят к нему за помощью отца Томаса, который подозревает в одержимости девочку из своего прихода. Выстоят ли они вдвоем в схватке со злом? Бог или Дьявол свел их вместе? И не являются ли они частью дьявольского плана по уничтожению мира?
ВНИМАНИЕ! Присутствует реклама.



скачать СЕМПЛ с multi-up
Качество: WEB-DLRip
Формат: AVI
Видео кодек: XviD
Аудио кодек: MP3
Видео: 720x400 (1.80:1), 23.976 fps, XviD build 50 ~1765 kbps avg, 0.26 bit/pixel
Аудио: 48 kHz, MPEG Layer 3, 2 ch, ~192.00 kbps avg

MediaInfo

General
Complete name : D:\ОЗВУЧКА\СЕРИАЛЫ №2\The.Exorcist.S01.ViruseProjec\The.Exorcist.S01.ViruseProjec\The.Exorcist.S01E01.ViruseProjec.avi
Format : AVI
Format/Info : Audio Video Interleave
File size : 665 MiB
Duration : 47 min 16 s
Overall bit rate : 1 967 kb/s
Writing application : Lavf52.39.2
Writing library : VirtualDub build 35491/release
Video
ID : 0
Format : MPEG-4 Visual
Format profile : Advanced Simple@L5
Format settings, BVOP : 1
Format settings, QPel : No
Format settings, GMC : No warppoints
Format settings, Matrix : Default (MPEG)
Codec ID : XVID
Codec ID/Hint : XviD
Duration : 47 min 16 s
Bit rate : 1 766 kb/s
Width : 720 pixels
Height : 400 pixels
Display aspect ratio : 16:9
Frame rate : 23.976 (23976/1000) FPS
Color space : YUV
Chroma subsampling : 4:2:0
Bit depth : 8 bits
Scan type : Progressive
Compression mode : Lossy
Bits/(Pixel*Frame) : 0.256
Stream size : 597 MiB (90%)
Writing library : XviD 1.2.1 (UTC 2008-12-04)
Audio
ID : 1
Format : MPEG Audio
Format version : Version 1
Format profile : Layer 3
Mode : Joint stereo
Mode extension : MS Stereo
Codec ID : 55
Codec ID/Hint : MP3
Duration : 47 min 16 s
Bit rate mode : Constant
Bit rate : 192 kb/s
Channel(s) : 2 channels
Sampling rate : 48.0 kHz
Compression mode : Lossy
Stream size : 64.9 MiB (10%)
Alignment : Split accross interleaves
Interleave, duration : 42 ms (1.00 video frame)
Interleave, preload duration : 500 ms

Скриншоты

Внимание! Раздача ведётся путём добавления новых серий.

Внимание! Раздача ведётся путём добавления новых серий; при каждом добавлении создётся новый торрент. Чтобы начать докачку новой серии, пользователям необходимо сделать следующее:
Остановить скачивание.
Удалить старый торрент у себя из клиента (старые серии удалять не надо).
Скачать новый торрент и запустить его у себя в клиенте вместо старого, при этом указать клиенту путь в старую папку куда и должно происходить скачивание новых серий.
Ваш клиент при этом должен произвести хеширование (проверку) старой папки (если не производит сам - помогите ему сделать это), и будет докачивать только те серии которых у вас ещё нет. Старые серии при этом не удаляются, а продолжают раздаваться!
Eсли вы уже удалили старые серии, то предотвратить повторную закачку старых серий можно, отжав галочку в соответсвующих местах при запуске нового торрента. По возможности, желательно не удалять старые серии как можно дольше чтобы релизёр не столько продолжал раздавать старые серии, а смог сконцентрироваться на новых.
[url=viewtopic.php?t=609808]Как закачать отдельный файл из торрента или докачать ранее пропущенные файлы торрента![/url]
Вне форума [Профиль] [ЛС]
Показать сообщения:    
Ответить на тему

Текущее время: Сегодня 23:24

Часовой пояс: GMT + 3



Вы не можете начинать темы
Вы не можете отвечать на сообщения
Вы не можете редактировать свои сообщения
Вы не можете удалять свои сообщения
Вы не можете голосовать в опросах
Вы не можете прикреплять файлы к сообщениям
Вы не можете скачивать файлы