Сегодня идет свободное скачивание без начисления Download

Неприрученные / Wild at Heart / Сезон: 7 / Серии: 1-2 из 10 (Николас Лафлэнд / Nicholas Laughland) [2012, Великобритания, драма, HDTV 1080i] DVO

Ответить на тему
 
Автор
Сообщение

Omen ®

Стаж: 6 лет 1 месяц

Сообщений: 184308

Торрент-статистика

Пост 29-Сен-2016 01:00

[Цитировать]

Неприрученные / Wild at Heart7 сезон: Серии 1-2 из 10 Год выпуска: 2012
Страна: Великобритания
Жанр: драма
Продолжительность: ~ 00:45:00 серия
Перевод: Профессиональный (двухголосый закадровый)
Режиссёр: Николас Лафлэнд / Nicholas Laughland
В ролях: Николас Лафлэнд / Nicholas Laughland
В ролях: Стивен Томпкинсон, Дион Стюардсон, Номса Ксаба, Тапело Мокоэна, Хейли Миллз, Люси-Джо Хадсон, Люк Уорд-Уилкинсон, Доун Стил, Оливия Скот-Тэйлор, Мэри-Энн Барлоу
Описание: Знакомьтесь: перед вами типичная британская семья — папа, мама, трое детей. Ну, может, не совсем типичная… Итак, Дэнни Треваньон — ветеринар, вдовец, немного за сорок, Рози — его восемнадцатилетняя дочь, Сара — полгода назад стала его женой, Эван и Оливия — тринадцати и восьми лет от роду соответственно — дети Сары от первого брака. Живут в Англии.
Но в один прекрасный момент переезжают в южно-африканский буш, где всем правит её величество Природа, живут слоны, жирафы, носороги и много кто ещё… Зачем они это делают? Что их ждёт в будущем, как изменится судьба каждого из них? Хотите узнать — смотрите великолепный британский сериал для всей семьи. Итак, всё начинается с одной маленькой зелёной мартышки…
Сэмпл: http://sendfile.su/1269550

Качество: HDTV 1080i
Контейнер: TS
Видео: AVC/H.264, PAL, 1920х1080 (16:9), 25 fps, 11,2 Мбит/сек
Аудио 1: русский, MP2, 48000 Hz, 192 Кбит/сек, 2 ch
Аудио 2: русский, АС3, 48000 Hz, 448 Кбит/сек, 2 ch
Субтитры: отсутствуют

MediaInfo

Общее
Идентификатор : 1 (0x1)
Полное имя : G:\Раздачи\Неприрученные - 7 сезон (HDTV 1080i)\Неприрученные (01 серия).ts
Формат : MPEG-TS
Размер файла : 3,94 Гбайт
Продолжительность : 45 м.
Режим общего битрейта : Переменный
Общий поток : 12,4 Мбит/сек
Видео
Идентификатор : 3031 (0xBD7)
Идентификатор меню : 1 (0x1)
Формат : AVC
Формат/Информация : Advanced Video Codec
Профиль формата : Main@L4.0
Параметр CABAC формата : Да
Параметр ReFrames формата : 4 кадра
Параметр GOP формата : M=1, N=32
Идентификатор кодека : 27
Продолжительность : 45 м.
Битрейт : 11,2 Мбит/сек
Ширина : 1920 пикселей
Высота : 1080 пикселей
Соотношение сторон : 16:9
Частота кадров : 25,000 кадров/сек
Цветовое пространство : YUV
Субдискретизация насыщенности : 4:2:0
Битовая глубина : 8 бит
Тип развёртки : Чересстрочная
Порядок развёртки : Верхнее поле первое
Бит/(Пиксели*Кадры) : 0.216
Размер потока : 3,54 Гбайт (90%)
Основные цвета : BT.709
Характеристики трансфера : BT.709
Коэффициенты матрицы : BT.709
colour_range : Limited
Аудио #1
Идентификатор : 3032 (0xBD8)
Идентификатор меню : 1 (0x1)
Формат : MPEG Audio
Версия формата : Version 1
Профиль формата : Layer 2
Идентификатор кодека : 3
Продолжительность : 45 м.
Вид битрейта : Постоянный
Битрейт : 192 Кбит/сек
Каналы : 2 канала
Частота : 48,0 КГц
Метод сжатия : С потерями
Размер потока : 62,2 Мбайт (2%)
Язык : Russian
Аудио #2
Идентификатор : 3033 (0xBD9)
Идентификатор меню : 1 (0x1)
Формат : AC-3
Формат/Информация : Audio Coding 3
Расширение режима : CM (complete main)
Параметр Endianness формата : Big
Идентификатор кодека : 6
Продолжительность : 45 м.
Вид битрейта : Постоянный
Битрейт : 448 Кбит/сек
Каналы : 6 каналов
Расположение каналов : Front: L C R, Side: L R, LFE
Частота : 48,0 КГц
Битовая глубина : 16 бит
Метод сжатия : С потерями
Размер потока : 145 Мбайт (4%)
Язык : Russian

Скриншоты

Внимание! Раздача ведётся путём добавления новых серий.

Внимание! Раздача ведётся путём добавления новых серий; при каждом добавлении создётся новый торрент. Чтобы начать докачку новой серии, пользователям необходимо сделать следующее:
(1) остановить скачивание,
(2) удалить старый торрент у себя из клиента (старые серии удалять не надо),
(3) скачать новый торрент и запустить его у себя в клиенте вместо старого, при этом указать клиенту путь в старую папку куда и должно происходить скачивание новых серий.
Ваш клиент при этом должен произвести хеширование (проверку) старой папки (если не производит сам - помогите ему сделать это), и будет докачивать только те серии которых у вас ещё нет. Старые серии при этом не удаляются, а продолжают раздаваться!
Eсли вы уже удалили старые серии, то предотвратить повторную закачку старых серий можно, отжав галочку в соответсвующих местах при запуске нового торрента. По возможности, желательно не удалять старые серии как можно дольше чтобы релизёр не столько продолжал раздавать старые серии, а смог сконцентрироваться на новых.
Вне форума [Профиль] [ЛС]
Похожие темы
Форум Тема Автор Торрент Отв. Посл. сообщение
./templates/default/images/folder_dl.gif Философия, Религия, Эзотерика Библиотека журнала "Неприкосновенный Запас" - Ассман А. - Новое недовольство мемориальной культурой [2016, RTF, RUS] Omen
1 | 0

0 | 1714

1

2017-01-14 01:00
Omen Последнее
Показать сообщения:    
Ответить на тему

Текущее время: Сегодня 14:25

Часовой пояс: GMT + 3



Вы не можете начинать темы
Вы не можете отвечать на сообщения
Вы не можете редактировать свои сообщения
Вы не можете удалять свои сообщения
Вы не можете голосовать в опросах
Вы не можете прикреплять файлы к сообщениям
Вы не можете скачивать файлы