Сегодня идет свободное скачивание без начисления Download

Голубая кровь / Blue Bloods / Сезон: 7 / Серии: 1 (22) (David Barrett) [2016, США, драма, криминал, детектив, HDTVRip 720p] DVO (Kiitos)

Ответить на тему
 
Автор
Сообщение

Omen ®

Стаж: 5 лет 7 месяцев

Сообщений: 185427

Торрент-статистика

Пост 29-Сен-2016 01:00

[Цитировать]

Голубая кровь / Blue Bloods
Год выпуска: 2016
Страна: США
Жанр: драма, криминал, детектив
Продолжительность: ~44 мин.
Перевод: Любительский (двухголосый закадровый) Kiitos
Перевод: Irver, aaaaaaaaaaaaaaaa, fenix996, kobra22
Озвучивание: kiitos, Chertenok
Cведение: kiitos
Режиссёр: David Barrett
В ролях: Дженнифер Винер, Лен Кариу, Уилл Эстес, Бриджет Мойнэхэн, Том Селлек, Донни Уолберг, Майк Хэвок, Флекс Александр, Коллин Клинтон, Дэвид Энзуэло
Описание: 7-й сезон криминально-драматического популярного американского телесериала «Голубая кровь» (оригинальное название Blue Bloods) о семье полицейских из Нью-Йорка.
Первые два сезона получили очень высокие рейтинги и множество положительных отзывов от зрителей, а его создатели, которые также работали над сериалом «Клан Сопрано», получили две премии «Эмми». Основными персонажами сериала является семья Рейганов.
Френк Рейган — глава полиции Нью-Йорка и патриарх семейства Рейганов, которым он управляет столь же дипломатично, как управляет полицией, даже когда имеет дело с политикой, что досаждала его чрезмерно смелому отцу, Генри, когда тот был главой полиции. Источником гордости и беспокойства Френка является его старший сын, Дэнни, опытный детектив, семейный человек и ветеран войны в Ираке, который иногда прибегает к сомнительным методам для раскрытия дел.
Единственная женщина в семье, Эрин, работает помощником прокурора Нью-Йорка, мать-одиночка, которая служит компасом закона для братьев и отца. Джейми — младший из Рейганов, недавно закончил юридический Гарварда и считается «золотым ребенком» семьи. Но он решил следовать семейной традиции, и отказался от работы в престижной юридической фирме, чтобы стать копом.
Качество: HDTVRip 720p
Контейнер: MKV
Видео: AVC, 1280x720 (16:9) 23.976fps 2951Kbps
Аудио: RUS: Dolby AC3 48000Hz 6ch 384kbps
Субтитры: нет
Сэмпл
Добавлена 1 серия . Торрент обновлен 28.09.2016

MediaInfo

Общее
Формат : Matroska
Версия формата : Version 4 / Version 2
Размер файла : 1,02 Гбайт
Продолжительность : 43 м.
Общий поток : 3337 Кбит/сек
Дата кодирования : UTC 2016-09-27 18:23:29
Программа кодирования : mkvmerge v8.3.0 ('Over the Horizon') 64bit
Библиотека кодирования : libebml v1.3.1 + libmatroska v1.4.2
Видео
Идентификатор : 1
Формат : AVC
Формат/Информация : Advanced Video Codec
Профиль формата : High@L3.1
Параметр CABAC формата : Да
Параметр ReFrames формата : 4 кадра
Идентификатор кодека : V_MPEG4/ISO/AVC
Продолжительность : 43 м.
Битрейт : 2951 Кбит/сек
Ширина : 1280 пикселей
Высота : 720 пикселей
Соотношение сторон : 16:9
Режим частоты кадров : Постоянный
Частота кадров : 23,976 (24000/1001) кадра/сек
Цветовое пространство : YUV
Субдискретизация насыщенности : 4:2:0
Битовая глубина : 8 бит
Тип развёртки : Прогрессивная
Бит/(Пиксели*Кадры) : 0.134
Размер потока : 926 Мбайт (88%)
Библиотека кодирования : x264 core 130 r2273 b3065e6
Настройки программы : cabac=1 / ref=3 / deblock=1:0:0 / analyse=0x3:0x113 / me=hex / subme=7 / psy=1 / psy_rd=1.00:0.00 / mixed_ref=1 / me_range=16 / chroma_me=1 / trellis=1 / 8x8dct=1 / cqm=0 / deadzone=21,11 / fast_pskip=1 / chroma_qp_offset=-2 / threads=12 / lookahead_threads=2 / sliced_threads=0 / nr=0 / decimate=1 / interlaced=0 / bluray_compat=0 / constrained_intra=0 / bframes=3 / b_pyramid=2 / b_adapt=1 / b_bias=0 / direct=3 / weightb=1 / open_gop=0 / weightp=2 / keyint=250 / keyint_min=23 / scenecut=40 / intra_refresh=0 / rc_lookahead=40 / rc=2pass / mbtree=1 / bitrate=2951 / ratetol=1.0 / qcomp=0.60 / qpmin=0 / qpmax=69 / qpstep=4 / cplxblur=20.0 / qblur=0.5 / ip_ratio=1.40 / aq=1:1.00
Default : Да
Forced : Нет
Аудио
Идентификатор : 2
Формат : AC-3
Формат/Информация : Audio Coding 3
Расширение режима : CM (complete main)
Параметр Endianness формата : Big
Идентификатор кодека : A_AC3
Продолжительность : 43 м.
Вид битрейта : Постоянный
Битрейт : 384 Кбит/сек
Каналы : 6 каналов
Расположение каналов : Front: L C R, Side: L R, LFE
Частота : 48,0 КГц
Частота кадров : 31,250 кадров/сек (1536 spf)
Метод сжатия : С потерями
Размер потока : 120 Мбайт (12%)
Заголовок : kiitos.tv
Язык : Russian
Default : Да
Forced : Нет

Внимание! Раздача ведётся путём добавления новых серий

Внимание! Раздача ведётся путём добавления новых серий; при каждом добавлении создётся новый торрент. Чтобы начать докачку новой серии, пользователям необходимо сделать следующее:
(1) остановить скачивание,
(2) удалить старый торрент у себя из клиента (старые серии удалять не надо),
(3) скачать новый торрент и запустить его у себя в клиенте вместо старого, при этом указать клиенту путь в старую папку куда и должно происходить скачивание новых серий.
Ваш клиент при этом должен произвести хеширование (проверку) старой папки (если не производит сам - помогите ему сделать это), и будет докачивать только те серии которых у вас ещё нет. Старые серии при этом не удаляются, а продолжают раздаваться!
Eсли вы уже удалили старые серии, то предотвратить повторную закачку старых серий можно, отжав галочку в соответсвующих местах при запуске нового торрента.

Скриншоты

Вне форума [Профиль] [ЛС]
Показать сообщения:    
Ответить на тему

Текущее время: Сегодня 08:11

Часовой пояс: GMT + 3



Вы не можете начинать темы
Вы не можете отвечать на сообщения
Вы не можете редактировать свои сообщения
Вы не можете удалять свои сообщения
Вы не можете голосовать в опросах
Вы не можете прикреплять файлы к сообщениям
Вы не можете скачивать файлы