Сегодня идет свободное скачивание без начисления Download

Ван Хельсинг / Van Helsing / Сезон: 1 / Серии: 1-2 из 13 (Майкл Нанкин, Саймон Бэрри, Дэвид Фрэйзи) [2016, Фэнтези, боевик, драма, WEB-DLRip] MVO (LostFilm) + Original

Ответить на тему
 
Автор
Сообщение

Omen ®

Стаж: 6 лет 1 месяц

Сообщений: 184308

Торрент-статистика

Пост 29-Сен-2016 01:00

[Цитировать]

Ван Хельсинг / Van Helsing Год выпуска: 2016
Страна: США
Жанр: Фэнтези, боевик, драма
Продолжительность: ~40 мин.
Перевод: Профессиональный (многоголосый закадровый) LostFilm
Режиссёр: Майкл Нанкин, Саймон Бэрри, Дэвид Фрэйзи
В ролях: Келли Овертон, Джонатан Скарф, Кристофер Хейердал, Рукия Бернард, Дэвид Кабитт, Винсент Гэйл, Хилари Джардин, Оливер Махоро Смит, Алекс Паунович, Элисон Вандзура и другие
Описание: Главным героем сериала «Ван Хельсинг» является Ванесса Хельсинг — дочка известного охотника на вурдалаков и непримиримого противника Дракулы — Абрахама Ван Хельсинга. Основная героиня оживает через 5 лет и оказывается в обществе, порабощенном вурдалаками. Ванесса выявляет в себе исключительную силу над вурдалаками и превращается в того человека, который сплотит народ, чтобы восстановить потерянный мир.

Качество: WEB-DLRip
Формат: AVI
Видео: 720x400 (1.80:1), 23.976 fps, XviD , 1550 kbps avg, 0.25 bit/pixel
Аудио: MP3, 2 ch, 128 kbps [Rus]
Аудио 2: MP3, 2 ch, 128 kbps [Eng]
Субтитры: отсутствуют

MediaInfo

Общее
Полное имя : D:\Загрузки\Van Helsing (Season 01) WEBDLRip\Van.Helsing.s01e01.WEB-DLRip.Rus.Eng..avi
Формат : AVI
Формат/Информация : Audio Video Interleave
Размер файла : 561 Мбайт
Продолжительность : 44 м.
Общий поток : 1782 Кбит/сек
Программа кодирования : VirtualDubMod 1.5.10.3 | www.virtualdub-fr.org || (build 2550/release)
Библиотека кодирования : VirtualDubMod build 2550/release
Видео
Идентификатор : 0
Формат : MPEG-4 Visual
Профиль формата : Advanced Simple@L5
Параметр BVOP формата : 1
Параметр QPel формата : Нет
Параметр GMC формата : Без точки перехода
Параметр матрицы формата : Default (MPEG)
Идентификатор кодека : XVID
Идентификатор кодека/Подсказка : XviD
Продолжительность : 44 м.
Битрейт : 1512 Кбит/сек
Ширина : 720 пикселей
Высота : 400 пикселей
Соотношение сторон : 16:9
Частота кадров : 23,976 (23976/1000) кадра/сек
Цветовое пространство : YUV
Субдискретизация насыщенности : 4:2:0
Битовая глубина : 8 бит
Тип развёртки : Прогрессивная
Метод сжатия : С потерями
Бит/(Пиксели*Кадры) : 0.219
Размер потока : 476 Мбайт (85%)
Библиотека кодирования : XviD 73
Аудио #1
Идентификатор : 1
Формат : MPEG Audio
Версия формата : Version 1
Профиль формата : Layer 3
Режим : Joint stereo
Расширение режима : MS Stereo
Идентификатор кодека : 55
Идентификатор кодека/Подсказка : MP3
Продолжительность : 44 м.
Вид битрейта : Постоянный
Битрейт : 128 Кбит/сек
Каналы : 2 канала
Частота : 48,0 КГц
Метод сжатия : С потерями
Размер потока : 40,3 Мбайт (7%)
Выравнивание : Соединение по промежуткам
Продолжительность промежутка : 42 мс. (1,00 видеокадр)
Время предзагрузки промежутка : 504 мс.
Аудио #2
Идентификатор : 2
Формат : MPEG Audio
Версия формата : Version 1
Профиль формата : Layer 3
Режим : Joint stereo
Расширение режима : MS Stereo
Идентификатор кодека : 55
Идентификатор кодека/Подсказка : MP3
Продолжительность : 44 м.
Вид битрейта : Постоянный
Битрейт : 128 Кбит/сек
Каналы : 2 канала
Частота : 48,0 КГц
Метод сжатия : С потерями
Размер потока : 40,3 Мбайт (7%)
Выравнивание : Соединение по промежуткам
Продолжительность промежутка : 42 мс. (1,00 видеокадр)
Время предзагрузки промежутка : 504 мс.

Скриншоты

Вне форума [Профиль] [ЛС]
Показать сообщения:    
Ответить на тему

Текущее время: Сегодня 19:16

Часовой пояс: GMT + 3



Вы не можете начинать темы
Вы не можете отвечать на сообщения
Вы не можете редактировать свои сообщения
Вы не можете удалять свои сообщения
Вы не можете голосовать в опросах
Вы не можете прикреплять файлы к сообщениям
Вы не можете скачивать файлы