Сегодня идет свободное скачивание без начисления Download

Назначенный преемник / Designated Survivor / Сезон: 1 / Серии: 1 из 13 (Пол А. Эдвардс, Пол МакГиган, Серджо Мимика-Геззан) [2016, триллер, драма, WEB-DL 1080p] MVO (NewStudio, Jaskier, BaibaKo) + Original

Ответить на тему
 
Автор
Сообщение

Omen ®

Стаж: 5 лет 7 месяцев

Сообщений: 185427

Торрент-статистика

Пост 29-Сен-2016 01:00

[Цитировать]

-Назначенный преемник/ Designated Survivor-- Год выпуска: 2016
Страна: США | USA
Жанр: триллер, драма
Продолжительность: ~00:45:00-Перевод#1: Профессиональный (многоголосый закадровый) | NewStudio
Перевод#3: Профессиональный (многоголосый закадровый) | Jaskier
Перевод#3: Профессиональный (многоголосый закадровый) | BaibaKo
Cубтитры: есть-Режиссер: Пол А. Эдвардс, Пол МакГиган, Серджо Мимика-Геззан-В ролях: Мэгги Кью, Наташа МакЭлхоун, Кэл Пенн, Кифер Сазерленд, Адан Канто, Италиа Риччи, ЛаМоника Гаррет, Тэннер Бьюкэнэн, Майкл Мюррэй Скрэтч, Майкл Гэстон и другие-Описание: В центре сюжета находится несущественный член правительства Том Киркман, который после смерти президента и его основных преемников наследует место президента США.-«Вопрос один. Удар нанесли свои или чужие»-IMDB: 8.312/10 (1,873 votes)
КиноПоиск: 7.786/10 (0,158 голосов)
-РЕЛИЗ от sergiy_psp
Примечание писал(а):
Добавлено озвучивание от двух релиз груп. Полная синхронизация видео со звуком!
Добавлена первая серия!. Всем приятного просмотра! Есть реклама!-Источник: iTunes WEB-DL
Качество видео: WEB-DL 1080p
Формат: MKV
Кодек: H.264 @ AC3
Видео: 1920x1080 at 23.976 fps, MPEG-4 AVC, ~5062 kbps avg, 0.101 bit/pixel
Аудио Rus: 48 kHz, AC3, 3/2 (L,C,R,l,r) + LFE ch, ~384.00 kbps avg |Многоголосый закадровый, NewStudio|
Аудио Rus: 48 kHz, AC3, 3/2 (L,R) ch, ~192.00 kbps avg |Многоголосый закадровый, Jaskier|
Аудио Rus: 48 kHz, AC3, 3/2 (L,C,R,l,r) + LFE ch, ~384.00 kbps avg |Многоголосый закадровый, BaibaKo|
Аудио Eng: 48 kHz, AC3, 3/2 (L,C,R,l,r) + LFE ch, ~384.00 kbps avg
Cубтитры: English
«Семпл»-

✘ Список серий ✘

Код:
01. - 21.09.2016 - Пилот / Pilot
02. - 28.09.2016 - День первый / The First Day
03. - 05.10.2016 - Осознание / The Confession
04. - 22.10.2016 - Первый враг / The Enemy
05. - 26.10.2016 - Эпизод #1.5 / Episode # 1.5
06. - 02.11.2016 - Эпизод #1.6 / Episode # 1.6
06. - 14.11.2016 - Эпизод #1.7 / Episode # 1.7
-

✘ MediaInfo ✘

Код:
Видео
Идентификатор                            : 1
Формат                                   : AVC
Формат/Информация                        : Advanced Video Codec
Профиль формата                          : High@L4.0
Параметр CABAC формата                   : Да
Параметр ReFrames формата                : 4 кадра
Идентификатор кодека                     : V_MPEG4/ISO/AVC
Продолжительность                        : 42 м.
Битрейт                                  : 5030 Кбит/сек
Ширина                                   : 1920 пикселей
Высота                                   : 1080 пикселей
Соотношение сторон                       : 16:9
Режим частоты кадров                     : Постоянный
Частота кадров                           : 23,976 кадра/сек
Цветовое пространство                    : YUV
Субдискретизация насыщенности            : 4:2:0
Битовая глубина                          : 8 бит
Тип развёртки                            : Прогрессивная
Бит/(Пиксели*Кадры)                      : 0.101
Размер потока                            : 1,50 Гбайт (77%)
Заголовок                                : Designated.Survivor.S01E01.1080p.WEB-DL.3xRus.Eng.sergiy_psp
Язык                                     : English
Default                                  : Да
Forced                                   : Нет
Основные цвета                           : BT.709
Характеристики трансфера                 : BT.709
Коэффициенты матрицы                     : BT.709
colour_range                             : Limited
Аудио #1
Идентификатор                            : 2
Формат                                   : AC-3
Формат/Информация                        : Audio Coding 3
Расширение режима                        : CM (complete main)
Параметр Endianness формата              : Big
Идентификатор кодека                     : A_AC3
Продолжительность                        : 42 м.
Вид битрейта                             : Постоянный
Битрейт                                  : 384 Кбит/сек
Каналы                                   : 6 каналов
Расположение каналов                     : Front: L C R, Side: L R, LFE
Частота                                  : 48,0 КГц
Битовая глубина                          : 16 бит
Метод сжатия                             : С потерями
Размер потока                            : 117 Мбайт (6%)
Заголовок                                : AC3 5.1 @ 384 kbps |NewStudio|
Язык                                     : Russian
Default                                  : Да
Forced                                   : Нет
Аудио #2
Идентификатор                            : 3
Формат                                   : AC-3
Формат/Информация                        : Audio Coding 3
Расширение режима                        : CM (complete main)
Параметр Endianness формата              : Big
Идентификатор кодека                     : A_AC3
Продолжительность                        : 42 м.
Вид битрейта                             : Постоянный
Битрейт                                  : 192 Кбит/сек
Каналы                                   : 2 канала
Расположение каналов                     : Front: L R
Частота                                  : 48,0 КГц
Битовая глубина                          : 16 бит
Метод сжатия                             : С потерями
Размер потока                            : 58,5 Мбайт (3%)
Заголовок                                : AC3 2.0 @ 192 kbps |Jaskier|
Язык                                     : Russian
Default                                  : Нет
Forced                                   : Нет
Аудио #3
Идентификатор                            : 4
Формат                                   : AC-3
Формат/Информация                        : Audio Coding 3
Расширение режима                        : CM (complete main)
Параметр Endianness формата              : Big
Идентификатор кодека                     : A_AC3
Продолжительность                        : 42 м.
Вид битрейта                             : Постоянный
Битрейт                                  : 384 Кбит/сек
Каналы                                   : 6 каналов
Расположение каналов                     : Front: L C R, Side: L R, LFE
Частота                                  : 48,0 КГц
Битовая глубина                          : 16 бит
Метод сжатия                             : С потерями
Задержка видео                           : 23 мс.
Размер потока                            : 117 Мбайт (6%)
Заголовок                                : AC3 5.1 @ 384 kbps |BaibaKo|
Язык                                     : Russian
Default                                  : Нет
Forced                                   : Нет
Аудио #4
Идентификатор                            : 5
Формат                                   : AC-3
Формат/Информация                        : Audio Coding 3
Расширение режима                        : CM (complete main)
Параметр Endianness формата              : Big
Идентификатор кодека                     : A_AC3
Продолжительность                        : 42 м.
Вид битрейта                             : Постоянный
Битрейт                                  : 384 Кбит/сек
Каналы                                   : 6 каналов
Расположение каналов                     : Front: L C R, Side: L R, LFE
Частота                                  : 48,0 КГц
Битовая глубина                          : 16 бит
Метод сжатия                             : С потерями
Размер потока                            : 117 Мбайт (6%)
Заголовок                                : AC3 5.1 @ 384 kbps |Original|
Язык                                     : English
Default                                  : Нет
Forced                                   : Нет
Текст
Идентификатор                            : 6
Формат                                   : UTF-8
Идентификатор кодека                     : S_TEXT/UTF8
Идентификатор кодека/Информация          : UTF-8 Plain Text
Заголовок                                : eng sub (полные)
Язык                                     : English
Default                                  : Нет
Forced                                   : Нет
-

✘ Скриншоты ✘


--Внимание!--

✘ Раздача ведётся путём добавления новых серий ✘

Внимание! Раздача ведётся путём добавления новых серий; при каждом добавлении создётся новый торрент. Чтобы начать докачку новой серии, пользователям необходимо сделать следующее:
(1) остановить скачивание,
(2) удалить старый торрент у себя из клиента (старые серии удалять не надо),
(3) скачать новый торрент и запустить его у себя в клиенте вместо старого, при этом указать клиенту путь в старую папку куда и должно происходить скачивание новых серий.-Ваш клиент при этом должен произвести хеширование (проверку) старой папки (если не производит сам - помогите ему сделать это), и будет докачивать только те серии которых у вас ещё нет. Старые серии при этом не удаляются, а продолжают раздаваться!-Eсли вы уже удалили старые серии, то предотвратить повторную закачку старых серий можно, отжав галочку в соответсвующих местах при запуске нового торрента.
Добавлен перевод от NewStudio
Вне форума [Профиль] [ЛС]
Показать сообщения:    
Ответить на тему

Текущее время: Сегодня 13:47

Часовой пояс: GMT + 3



Вы не можете начинать темы
Вы не можете отвечать на сообщения
Вы не можете редактировать свои сообщения
Вы не можете удалять свои сообщения
Вы не можете голосовать в опросах
Вы не можете прикреплять файлы к сообщениям
Вы не можете скачивать файлы