Сегодня идет свободное скачивание без начисления Download

В Филадельфии всегда солнечно / It\'s Always Sunny in Philadelphia / Сезон: 10 / Серии: (1-10) из 10 (Тодд Бирман, Ричи Кин) [2015, США, комедия, WEB-DL 1080p] MVO (Lostfilm) + Original

Ответить на тему
 
Автор
Сообщение

Omen ®

Стаж: 5 лет 11 месяцев

Сообщений: 184329

Торрент-статистика

Пост 28-Сен-2016 01:00

[Цитировать]

--В Филадельфии всегда солнечно / It's Always Sunny in Philadelphia-- Год выпуска: 2015
Страна: США
Жанр: комедия
Продолжительность: 00:22:00
Перевод: Профессиональный (многоголосый закадровый) LostFilm
Режиссёр: Ричи Кин, Тодд Бирман-В ролях:
Чарли Дэй, Гленн Хоуертон, Роб МакЭлхенни, Кэйтлин Олсен, Дэнни ДеВито и др.-Описание:
Комедийный сериал Роба МакЭлхенни повествует о четырёх молодых друзьях - владельцах ирландского паба в депрессивном районе Филадельфии. Бизнес у ребят идёт не слишком успешно, но это не мешает им регулярно находить приключения на отдельные части своего тела.
Главные герои ситкома - Мак, Чарли, Деннис и Ди - аморальны, беспринципны, неполиткорректны и готовы врать напропалую ради достижения собственных целей. К тому же постоянно "воюют" друг с другом. Впрочем, в большинстве случаев эти качества не приводят их ни к чему хорошему. В результате вся "шайка" регулярно попадает в самые нелепейшие ситуации. Одну из главных ролей в сериале исполнил Денни ДеВито.-Качество: WEB-DL 1080p
Контейнер: MKV
Видео: 1920x1080 (16:9), 23.976 fps, AVC ~5 242 kbps, ~0.105 bit/pixel
Аудио: AC-3, 48.0 KHz, 2 ch, 384 Kbps; Профессиональный (многоголосый закадровый) LostFilm
Аудио 2: AC-3, 48.0 KHz, 2 ch, 384 Kbps, English
Релиз:
Сэмпл

Список серий

1- Шайка бьёт рекорд Боггса (The Gang Beats Boggs)
2- Шайка устраивает группсвидания (The Gang Group Dates)
3- Возвращение Психо-Пита (Psycho Pete Returns)
4- Чарлибота (Charlie Work)
5- Шайка шпионит, как С.Ш. (The Gang Spies Like U.S.)
6- Шайка опаздывает на яхту (The Gang Missess the Boat)
7- Мак мочит своего батю (Mac Kills His Dad)
8- Шайка играет в "Сто к одному" (The Gang Goes on Family Fight)
9- Фрэнк уходит на покой (Frank Retires)
10- Союз Жоподёров: Мак и Чарли вступают в секту (Ass Kickers United: Mac and Charlie Join a Cult)

MediaInfo

Format : Matroska
Format version : Version 2
File size : 882 MiB
Duration : 20mn 31s
Overall bit rate : 6 009 Kbps
Encoded date : UTC 2015-01-17 17:15:25
Writing application : mkvmerge v4.2.0 ('No Talking') сборка от Jul 28 2010 18:38:23
Writing library : libebml v1.0.0 + libmatroska v1.0.0
Video
ID : 1
Format : AVC
Format/Info : Advanced Video Codec
Format profile : High@L4.0
Format settings, CABAC : Yes
Format settings, ReFrames : 2 frames
Codec ID : V_MPEG4/ISO/AVC
Duration : 20mn 31s
Bit rate : 5 242 Kbps
Width : 1 920 pixels
Height : 1 080 pixels
Display aspect ratio : 16:9
Frame rate mode : Constant
Frame rate : 23.976 fps
Color space : YUV
Chroma subsampling : 4:2:0
Bit depth : 8 bits
Scan type : Progressive
Bits/(Pixel*Frame) : 0.105
Stream size : 752 MiB (85%)
Audio #1
ID : 2
Format : AC-3
Format/Info : Audio Coding 3
Mode extension : CM (complete main)
Format settings, Endianness : Big
Codec ID : A_AC3
Duration : 20mn 31s
Bit rate mode : Constant
Bit rate : 384 Kbps
Channel(s) : 2 channels
Channel positions : Front: L R
Sampling rate : 48.0 KHz
Bit depth : 16 bits
Compression mode : Lossy
Stream size : 56.4 MiB (6%)
Default : Yes
Forced : No
Audio #2
ID : 3
Format : AC-3
Format/Info : Audio Coding 3
Mode extension : CM (complete main)
Format settings, Endianness : Big
Codec ID : A_AC3
Duration : 20mn 31s
Bit rate mode : Constant
Bit rate : 384 Kbps
Channel(s) : 2 channels
Channel positions : Front: L R
Sampling rate : 48.0 KHz
Bit depth : 16 bits
Compression mode : Lossy
Stream size : 56.4 MiB (6%)
Default : No
Forced : No

Скриншоты

Вне форума [Профиль] [ЛС]
Показать сообщения:    
Ответить на тему

Текущее время: Сегодня 10:23

Часовой пояс: GMT + 3



Вы не можете начинать темы
Вы не можете отвечать на сообщения
Вы не можете редактировать свои сообщения
Вы не можете удалять свои сообщения
Вы не можете голосовать в опросах
Вы не можете прикреплять файлы к сообщениям
Вы не можете скачивать файлы