Сегодня идет свободное скачивание без начисления Download

Мистер Хутен и леди / Hooten and the Lady / Сезон: 1 / Серия: 1 из 8 (Джастин Молотников, Дэниэл О’Хара) [2016, драма, HDTVRip] MVO (Jaskier) + Original

Ответить на тему
 
Автор
Сообщение

Omen ®

Стаж: 6 лет 1 месяц

Сообщений: 184308

Торрент-статистика

Пост 27-Сен-2016 01:00

[Цитировать]

Мистер Хутен и леди | Hooten and the Lady -Оригинальное название: Hooten and the Lady
Русское название: Мистер Хутен и леди
Год выпуска: 2016
Страна: Великобритания
Жанр: драма
Продолжительность: ~45 мин.-Перевод: Профессиональный (многоголосый закадровый) Студия Jaskier
Субтитры: Нет-Режиссёр: Джастин Молотников, Дэниэл О’Хара-В ролях: Майкл Лэндис, Офелия Ловибонд, Шон Паркес, Джессика Хайнс, Джонатан Бэйли, Джейн Сеймур, Стевель Марк, Валери Лиллей, Кирстон Вэрэйнг и другие.-Описание: Главные герои этого сериала любят свою работу настолько сильно, что готовы рисковать всем ради нее. Авантюристы Хутен и Леди Александра работают вместе. Они - сотрудники Британского музея, которые пытаются наполнить свое заведение артефактами прошлого. Исторические реликвии - это настоящая ценность для главных героев. Поэтому они готовы отправиться хоть на край света, чтобы забрать тот или иной предмет, некогда связанный с историческими личностями. В этот раз парочке предстоит непростое путешествие, целью которого является золотой город, пропавший свиток Будды и могила самого Александра Македонского.-Сэмпл-Качество: HDTVRip
Формат: AVI
Видео кодек: XviD
Аудио кодек: AC3, MP3
Видео: 720x360 (16:9), 25 fps, ~1200kbps, ~0.136 bit/pixel-Аудио 1: Dolby AC3 48000Hz stereo 192Kbps Русский
Аудио 2: Lame MP3 48000Hz stereo 128Kbps Оригинал (Английский)-

MediaInfo

Код:
General
Complete name               : xxxxxxxxxxx\Hooten.and.the.Lady.S01E01.HDTVRip.XviD.Jaskier.Rus.Eng.avi
Format                      : AVI
Format/Info                 : Audio Video Interleave
File size                   : 396 MiB
Duration                    : 45mn 24s
Overall bit rate            : 1 218 Kbps
Writing application         : VirtualDubModRus 1.5.10.2 (build 2540/release)
Writing library             : VirtualDubMod build 2540/release
Video
ID                          : 0
Format                      : MPEG-4 Visual
Format profile              : Advanced Simple@L5
Format settings, BVOP       : 1
Format settings, QPel       : No
Format settings, GMC        : No warppoints
Format settings, Matrix     : Default (H.263)
Codec ID                    : XVID
Codec ID/Hint               : XviD
Duration                    : 45mn 24s
Bit rate                    : 884 Kbps
Width                       : 720 pixels
Height                      : 360 pixels
Display aspect ratio        : 2.000
Frame rate                  : 25.000 fps
Color space                 : YUV
Chroma subsampling          : 4:2:0
Bit depth                   : 8 bits
Scan type                   : Progressive
Compression mode            : Lossy
Bits/(Pixel*Frame)          : 0.136
Stream size                 : 287 MiB (73%)
Writing library             : XviD 1.2.1 (UTC 2008-12-04)
Audio #1
ID                          : 1
Format                      : AC-3
Format/Info                 : Audio Coding 3
Mode extension              : CM (complete main)
Format settings, Endianness : Big
Codec ID                    : 2000
Duration                    : 45mn 24s
Bit rate mode               : Constant
Bit rate                    : 192 Kbps
Channel(s)                  : 2 channels
Channel positions           : Front: L R
Sampling rate               : 48.0 KHz
Frame rate                  : 31.250 fps (1536 spf)
Compression mode            : Lossy
Stream size                 : 62.4 MiB (16%)
Alignment                   : Split accross interleaves
Interleave, duration        : 40 ms (1.00 video frame)
Interleave, preload duratio : 500 ms
Audio #2
ID                          : 2
Format                      : MPEG Audio
Format version              : Version 1
Format profile              : Layer 3
Codec ID                    : 55
Codec ID/Hint               : MP3
Duration                    : 45mn 24s
Bit rate mode               : Constant
Bit rate                    : 128 Kbps
Channel(s)                  : 2 channels
Sampling rate               : 48.0 KHz
Compression mode            : Lossy
Stream size                 : 41.6 MiB (11%)
Alignment                   : Aligned on interleaves
Interleave, duration        : 40 ms (1.00 video frame)
Interleave, preload duratio : 504 ms
Writing library             : LAME3.98r
Encoding settings           : -m s -V 4 -q 0 -lowpass 17 -b 128

Скриншоты

Внимание! Раздача ведётся путём добавления новых серий.

Внимание! Раздача ведётся путём добавления новых серий; при каждом добавлении создётся новый торрент. Чтобы начать докачку новой серии, пользователям необходимо сделать следующее:
  • Остановить скачивание.
  • Удалить старый торрент у себя из клиента (старые серии удалять не надо).
  • Скачать новый торрент и запустить его у себя в клиенте вместо старого, при этом указать клиенту путь в старую папку куда и должно происходить скачивание новых серий.
    Ваш клиент при этом должен произвести хеширование (проверку) старой папки (если не производит сам - помогите ему сделать это), и будет докачивать только те серии которых у вас ещё нет. Старые серии при этом не удаляются, а продолжают раздаваться!
    Eсли вы уже удалили старые серии, то предотвратить повторную закачку старых серий можно, отжав галочку в соответсвующих местах при запуске нового торрента. По возможности, желательно не удалять старые серии как можно дольше чтобы релизёр не столько продолжал раздавать старые серии, а смог сконцентрироваться на новых.
Вне форума [Профиль] [ЛС]
Показать сообщения:    
Ответить на тему

Текущее время: Сегодня 20:13

Часовой пояс: GMT + 3



Вы не можете начинать темы
Вы не можете отвечать на сообщения
Вы не можете редактировать свои сообщения
Вы не можете удалять свои сообщения
Вы не можете голосовать в опросах
Вы не можете прикреплять файлы к сообщениям
Вы не можете скачивать файлы