Сегодня идет свободное скачивание без начисления Download

Развяжи меня, пожалуйста, мистер... / Untie me please, mister... (N/A / ExxxtraSmall<wbr> / TeamSkeet) [2013 г., Small Tits, Small Vagina, Straight, Teen, SiteRip] (Dakota Skye)

Ответить на тему
 
Автор
Сообщение

XP1971 ®

Пол:

Стаж: 4 года 9 месяцев

Сообщений: 5286

Торрент-статистика

Пост 26-Сен-2016 21:27

[Цитировать]

-Развяжи меня, пожалуйста, мистер...

Untie me please, mister...
-- Страна: USA
Режиссер: N/A
Год выпуска: 2013 г.
Перевод: Отсутствует
Продолжительность: 00:27:21
Студия: ExxxtraSmall / TeamSkeet
Оригинальный аудиопоток: английский
Жанр: Small Tits, Small Vagina, Straight, Teen-В ролях: Dakota Skye-Оригинальное описание:
Dakota Skye is a FREAK. She let Tony tie her up while her dad was out of town and dude split once he heard someone knocking on the door. Too bad it was only Bruno, the plumber. Our boy Bruno came in at the right time and untied this horny little petite freak under one stipulation: only if she let him lay down some serious pipe on that exxxtra small tight pussy.-
Контейнер: WMV
Видео кодек: VC-1
Cубтитры: отсутствуют
Качество видео: SiteRip
Аудио кодек: Windows Media
Аудио: Windows Media Audio | 44.1 KHz | 2 ch | 128.0 Kbps
Видео: WMV | 960х540 | 2000 Kbps | 23.976 fps | 0.161 bit/pixel

Media Info

Код:
Общее
Полное имя : Untie me please, mister_[/*spam*/].wmv
Формат : Windows Media
Размер файла : 415 Мбайт
Продолжительность : 27 м.
Общий поток : 2119 Кбит/сек
Максимальный общий битрейт : 2128 Кбит/сек
Дата кодирования : UTC 2013-08-09 06:47:37.000
Видео
Идентификатор : 1
Формат : VC-1
Профиль формата : [email protected]/*  */
Идентификатор кодека : WVC1
Идентификатор кодека/Подсказка : Microsoft
Описание кодека : Windows Media Video 9 VC-1 - CBR
Продолжительность : 27 м.
Битрейт : 2000 Кбит/сек
Ширина : 960 пикселей
Высота : 540 пикселей
Соотношение сторон : 16:9
Частота кадров : 23,976 кадра/сек
Цветовое пространство : YUV
Субдискретизация насыщенности : 4:2:0
Битовая глубина : 8 бит
Тип развёртки : Прогрессивная
Метод сжатия : С потерями
Бит/(Пиксели*Кадры) : 0.161
Размер потока : 391 Мбайт (94%)
Аудио
Идентификатор : 2
Формат : WMA
Версия формата : Version 2
Идентификатор кодека : 161
Идентификатор кодека/Информация : Windows Media Audio
Описание кодека : Windows Media Audio 9 - 128 kbps, 44 kHz, stereo CBR
Продолжительность : 27 м.
Битрейт : 128 Кбит/сек
Каналы : 2 канала
Частота : 44,1 КГц
Битовая глубина : 16 бит
Размер потока : 25,0 Мбайт (6%)

Скринлист


_________________
Вне форума [Профиль] [ЛС]
Показать сообщения:    
Ответить на тему

Текущее время: Сегодня 15:38

Часовой пояс: GMT + 3



Вы не можете начинать темы
Вы не можете отвечать на сообщения
Вы не можете редактировать свои сообщения
Вы не можете удалять свои сообщения
Вы не можете голосовать в опросах
Вы не можете прикреплять файлы к сообщениям
Вы не можете скачивать файлы