Сегодня идет свободное скачивание без начисления Download

В лучшем мире / The Good Place / Сезон: 1 / Серии: 1-2 из 13 (Дрю Годдард / Drew Goddard) [2016, комедия, WEB-DL 1080p] MVO (Newstudio, BaibaKo) + Original

Ответить на тему
 
Автор
Сообщение

Omen ®

Стаж: 6 лет 1 месяц

Сообщений: 184308

Торрент-статистика

Пост 26-Сен-2016 01:00

[Цитировать]

-В лучшем мире / The Good Place-- Год выпуска: 2016
Страна: США | USA
Жанр: комедия
Продолжительность: ~00:22:00-Перевод#1: Профессиональный (многоголосый закадровый) | Newstudio
Перевод#2: Профессиональный (многоголосый закадровый) | BaibaKo
Cубтитры: нет-Режиссер: Дрю Годдард / Drew Goddard-В ролях: Кристен Белл, Тед Дэнсон, Уильям Джексон Харпер, Джамиля Джамиль, Мэнни Йакинто и др.-Описание: Главная героиня этой комедии, Элеонор Шеллстроп, весьма интересная женщина. Хотя, на первый взгляд, и не скажешь, что в ней есть что-то необычное. Девушка неожиданно для себя попадает в загробный мир, где узнает, что при жизни была далеко не хорошим человеком. После этого Элеонор мечтает лишь об одном - как можно скорее измениться и стать лучше. Ее проводник-наставник дает шанс героини на новую жизнь. Элеонор пытается отречься от всего того, что происходило с ней до этого момента. Теперь она появляется на Земле совершенно в другом образе. Женщина пытается быть хорошей и примерной, но старые привычки дают о себе знать.-«Держись лучшее место, тебе в гости идет Элеонора»-IMDB: 7.314/10 (0,773 votes)
КиноПоиск: 7.586/10 (0,058 голосов)
-РЕЛИЗ от sergiy_psp
Примечание писал(а):
Добавлено озвучивание от двух релиз груп. Полная синхронизация видео та звука!
Начало сезона!. Всем приятного просмотра! Есть рекламы!-Источник: iTunes WEB-DL
Качество видео: WEB-DL 1080p
Формат: MKV
Кодек: H.264 @ AC3
Видео: 1920x1080 at 23.976 fps, MPEG-4 AVC, ~4962 kbps avg, 0.101 bit/pixel
Аудио Rus: 48 kHz, AC3, 3/2 (L,C,R,l,r) + LFE ch, ~384.00 kbps avg |Многоголосый закадровый, Newstudio|
Аудио Rus: 48 kHz, AC3, 3/2 (L,C,R,l,r) + LFE ch, ~384.00 kbps avg |Многоголосый закадровый, BaibaKo|
Аудио Eng: 48 kHz, AC3, 3/2 (L,C,R,l,r) + LFE ch, ~384.00 kbps avg
Cубтитры: нет
«Семпл»-

✘ Список серий ✘

Код:
01. Пилот / Pilot
02. Полет / Flying
03. Тахані Аль-Джамиль / Tahani Al-Jamil
04. Джейсон Мендоза / Jason Mendoza
05. Категория 55 Конец света / Category 55 Emergency Doomsday Crisis
06. То, что мы должны друг другу / What We Owe to Each Other
-

✘ MediaInfo ✘

Код:
Видео
Идентификатор                            : 1
Формат                                   : AVC
Формат/Информация                        : Advanced Video Codec
Профиль формата                          : High@L4.0
Параметр CABAC формата                   : Да
Параметр ReFrames формата                : 4 кадра
Идентификатор кодека                     : V_MPEG4/ISO/AVC
Продолжительность                        : 22 м.
Битрейт                                  : 5034 Кбит/сек
Ширина                                   : 1920 пикселей
Высота                                   : 1080 пикселей
Соотношение сторон                       : 16:9
Режим частоты кадров                     : Постоянный
Частота кадров                           : 23,976 кадра/сек
Цветовое пространство                    : YUV
Субдискретизация насыщенности            : 4:2:0
Битовая глубина                          : 8 бит
Тип развёртки                            : Прогрессивная
Бит/(Пиксели*Кадры)                      : 0.101
Размер потока                            : 823 Мбайт (80%)
Заголовок                                : The.Good.Place.S01E01.1080p.WEB-DL.2xRus.Eng.sergiy_psp
Язык                                     : English
Default                                  : Да
Forced                                   : Нет
Основные цвета                           : BT.709
Характеристики трансфера                 : BT.709
Коэффициенты матрицы                     : BT.709
colour_range                             : Limited
Аудио #1
Идентификатор                            : 2
Формат                                   : AC-3
Формат/Информация                        : Audio Coding 3
Расширение режима                        : CM (complete main)
Параметр Endianness формата              : Big
Идентификатор кодека                     : A_AC3
Продолжительность                        : 22 м.
Вид битрейта                             : Постоянный
Битрейт                                  : 384 Кбит/сек
Каналы                                   : 6 каналов
Расположение каналов                     : Front: L C R, Side: L R, LFE
Частота                                  : 48,0 КГц
Битовая глубина                          : 16 бит
Метод сжатия                             : С потерями
Размер потока                            : 62,8 Мбайт (6%)
Заголовок                                : AC3 5.1 @ 384 kbps |Newstudio|
Язык                                     : Russian
Default                                  : Да
Forced                                   : Нет
Аудио #2
Идентификатор                            : 3
Формат                                   : AC-3
Формат/Информация                        : Audio Coding 3
Расширение режима                        : CM (complete main)
Параметр Endianness формата              : Big
Идентификатор кодека                     : A_AC3
Продолжительность                        : 22 м.
Вид битрейта                             : Постоянный
Битрейт                                  : 384 Кбит/сек
Каналы                                   : 6 каналов
Расположение каналов                     : Front: L C R, Side: L R, LFE
Частота                                  : 48,0 КГц
Битовая глубина                          : 16 бит
Метод сжатия                             : С потерями
Задержка видео                           : 23 мс.
Размер потока                            : 62,8 Мбайт (6%)
Заголовок                                : AC3 5.1 @ 384 kbps |BaibaKo|
Язык                                     : Russian
Default                                  : Нет
Forced                                   : Нет
Аудио #3
Идентификатор                            : 4
Формат                                   : AC-3
Формат/Информация                        : Audio Coding 3
Расширение режима                        : CM (complete main)
Параметр Endianness формата              : Big
Идентификатор кодека                     : A_AC3
Продолжительность                        : 22 м.
Вид битрейта                             : Постоянный
Битрейт                                  : 384 Кбит/сек
Каналы                                   : 6 каналов
Расположение каналов                     : Front: L C R, Side: L R, LFE
Частота                                  : 48,0 КГц
Битовая глубина                          : 16 бит
Метод сжатия                             : С потерями
Размер потока                            : 62,8 Мбайт (6%)
Заголовок                                : AC3 5.1 @ 384 kbps |Original|
Язык                                     : English
Default                                  : Нет
Forced                                   : Нет
-

✘ Скриншоты ✘



--Внимание!--

✘ Раздача ведётся путём добавления новых серий ✘

Внимание! Раздача ведётся путём добавления новых серий; при каждом добавлении создётся новый торрент. Чтобы начать докачку новой серии, пользователям необходимо сделать следующее:
(1) остановить скачивание,
(2) удалить старый торрент у себя из клиента (старые серии удалять не надо),
(3) скачать новый торрент и запустить его у себя в клиенте вместо старого, при этом указать клиенту путь в старую папку куда и должно происходить скачивание новых серий.-Ваш клиент при этом должен произвести хеширование (проверку) старой папки (если не производит сам - помогите ему сделать это), и будет докачивать только те серии которых у вас ещё нет. Старые серии при этом не удаляются, а продолжают раздаваться!-Eсли вы уже удалили старые серии, то предотвратить повторную закачку старых серий можно, отжав галочку в соответсвующих местах при запуске нового торрента.
Добавлена вторая серия!
Вне форума [Профиль] [ЛС]
Показать сообщения:    
Ответить на тему

Текущее время: Сегодня 20:13

Часовой пояс: GMT + 3



Вы не можете начинать темы
Вы не можете отвечать на сообщения
Вы не можете редактировать свои сообщения
Вы не можете удалять свои сообщения
Вы не можете голосовать в опросах
Вы не можете прикреплять файлы к сообщениям
Вы не можете скачивать файлы