Сегодня идет свободное скачивание без начисления Download

Американская история ужасов / American Horror Story / Сезон: 6 / Серии: 1-2 из 10 (Брэдли Букер, Майкл Аппендаль, Майкл Леманн) [2016, Ужасы, фэнтези, триллер, драма, WEB-DL 720p] MVO (Jaskier) + Original

Ответить на тему
 
Автор
Сообщение

Omen ®

Стаж: 5 лет 6 месяцев

Сообщений: 186946

Торрент-статистика

Пост 23-Сен-2016 01:01

[Цитировать]

Американская история ужасов: Мой кошмар в Роаноке | American Horror Story. My Roanoke Nightmare -Оригинальное название: American Horror Story: My Roanoke Nightmare
Русское название: Американская история ужасов: Мой кошмар в Роаноке
Год выпуска: 2016
Страна: США
Жанр: Ужасы, фэнтези, триллер, драма
Продолжительность: ~00:40:00 мин-Перевод: Профессиональный (многоголосый закадровый) Студия Jaskier
Субтитры: Нет-Режиссёр: Брэдли Букер, Майкл Аппендаль, Альфонсо Гомез-Рейон, Майкл Леманн-В ролях: Сара Полсон, Анджела Бассетт, Куба Гудинг-мл., Эван Питерс, Денис О'Харе, Кэти Бэйтс, Финн Уиттрок, Уэс Бентли, Мэтт Бомер, Леди Гага, Шайенн Джексон, Лесли Джордан, Лили Рэйб, Адина Портер, Андрэ Холланд-Описание: Сюжет нового сезона сериала строится на 2 временных линиях – в настоящем и американском прошлом эпохи колонизации. Одним из событий, задействованных в сериале, является таинственное исчезновение колонистов, пропавших на острове Кроатоан в конце 16 века.-Перевод: Александр Митраков-Сэмпл-Качество: WEB-DL 720, HDTVRip 720 (2 серия)
Формат: MKV
Видео кодек: h.264
Аудио кодек: AC3
Видео: AVC, 1280x720 (16:9), 23.976 fps, ~2900kbps ~0.122 bit/pixel, 2 серия: MPEG4 Video (H264) 1280x720 23.976fps ~3200kbps ~0.146 bit/pixel-Аудио 1: Dolby AC3 48000Hz stereo 192Kbps Русский
Аудио 2: Dolby AC3 48000Hz 6ch 384Kbps Оригинал (Английский)-

MediaInfo

Код:
General
Unique ID                      : 245266165333041812565288712587572018225 (0xB8848B93467DAFFE90A2ECA7FC9DFC31)
Complete name                  : Z:\HD\American Horror Story. My Roanoke Nightmare (WEB-DL l 720p l Jaskier)\American.Horror.Story.S06E01.720p.AMZN.WEBRip.DD5.1.x264-Jaskier.mkv
Format                         : Matroska
Format version                 : Version 2
File size                      : 1.04 GiB
Duration                       : 44mn 37s
Overall bit rate mode          : Variable
Overall bit rate               : 3 339 Kbps
Movie name                     : American.Horror.Story.S06E01.720p.AMZN.WEBRip.DD5.1.x264-CasStudio
Encoded date                   : UTC 2016-09-15 20:04:47
Writing application            : mkvmerge v5.4.0 ('Piper') built on Mar 10 2012 13:34:39
Writing library                : libebml v1.2.3 + libmatroska v1.3.0
Video
ID                             : 1
Format                         : AVC
Format/Info                    : Advanced Video Codec
Format profile                 : High@L3.1
Format settings, CABAC         : Yes
Format settings, ReFrames      : 5 frames
Codec ID                       : V_MPEG4/ISO/AVC
Duration                       : 44mn 37s
Bit rate mode                  : Variable
Bit rate                       : 2 696 Kbps
Maximum bit rate               : 4 500 Kbps
Width                          : 1 280 pixels
Height                         : 720 pixels
Display aspect ratio           : 16:9
Frame rate                     : 23.976 fps
Color space                    : YUV
Chroma subsampling             : 4:2:0
Bit depth                      : 8 bits
Scan type                      : Progressive
Bits/(Pixel*Frame)             : 0.122
Stream size                    : 861 MiB (81%)
Language                       : English
Default                        : Yes
Forced                         : No
Color primaries                : BT.709-5, BT.1361, IEC 61966-2-4, SMPTE RP177
Transfer characteristics       : BT.709-5, BT.1361
Matrix coefficients            : BT.709-5, BT.1361, IEC 61966-2-4 709, SMPTE RP177
Audio #1
ID                             : 2
Format                         : AC-3
Format/Info                    : Audio Coding 3
Mode extension                 : CM (complete main)
Format settings, Endianness    : Big
Codec ID                       : A_AC3
Duration                       : 44mn 37s
Bit rate mode                  : Constant
Bit rate                       : 192 Kbps
Channel(s)                     : 2 channels
Channel positions              : Front: L R
Sampling rate                  : 48.0 KHz
Bit depth                      : 16 bits
Compression mode               : Lossy
Stream size                    : 61.3 MiB (6%)
Language                       : Russian
Default                        : Yes
Forced                         : No
Audio #2
ID                             : 3
Format                         : AC-3
Format/Info                    : Audio Coding 3
Mode extension                 : CM (complete main)
Format settings, Endianness    : Big
Codec ID                       : A_AC3
Duration                       : 44mn 37s
Bit rate mode                  : Constant
Bit rate                       : 384 Kbps
Channel(s)                     : 6 channels
Channel positions              : Front: L C R, Side: L R, LFE
Sampling rate                  : 48.0 KHz
Bit depth                      : 16 bits
Compression mode               : Lossy
Stream size                    : 123 MiB (12%)
Language                       : English
Default                        : No
Forced                         : No
Text
ID                             : 4
Format                         : UTF-8
Codec ID                       : S_TEXT/UTF8
Codec ID/Info                  : UTF-8 Plain Text
Language                       : English
Default                        : No
Forced                         : No

Media Info 2 серия

Код:
General
Unique ID                      : 172255107838297447017750510729410778392 (0x81972084C5AEB895BB346DA402AA1518)
Complete name                  : Z:\HD\American Horror Story. My Roanoke Nightmare (WEB-DL l 720p l Jaskier)\American.Horror.Story.S06E02.720p.HDTVRip.DD5.1.x264-Jaskier.mkv
Format                         : Matroska
Format version                 : Version 2
File size                      : 1.05 GiB
Duration                       : 38mn 46s
Overall bit rate               : 3 889 Kbps
Encoded date                   : UTC 2016-09-22 21:06:27
Writing application            : mkvmerge v5.4.0 ('Piper') built on Mar 10 2012 13:34:39
Writing library                : libebml v1.2.3 + libmatroska v1.3.0
Video
ID                             : 1
Format                         : AVC
Format/Info                    : Advanced Video Codec
Format profile                 : High@L4.1
Format settings, CABAC         : Yes
Format settings, ReFrames      : 5 frames
Codec ID                       : V_MPEG4/ISO/AVC
Duration                       : 38mn 46s
Bit rate                       : 3 235 Kbps
Width                          : 1 280 pixels
Height                         : 720 pixels
Display aspect ratio           : 16:9
Frame rate                     : 23.976 fps
Color space                    : YUV
Chroma subsampling             : 4:2:0
Bit depth                      : 8 bits
Scan type                      : Progressive
Bits/(Pixel*Frame)             : 0.146
Stream size                    : 897 MiB (83%)
Writing library                : x264 core 148 r2705 3f5ed56
Encoding settings              : cabac=1 / ref=5 / deblock=1:0:0 / analyse=0x3:0x113 / me=umh / subme=8 / psy=1 / psy_rd=1.00:0.00 / mixed_ref=1 / me_range=16 / chroma_me=1 / trellis=1 / 8x8dct=1 / cqm=0 / deadzone=21,11 / fast_pskip=1 / chroma_qp_offset=-2 / threads=22 / lookahead_threads=3 / sliced_threads=0 / nr=0 / decimate=1 / interlaced=0 / bluray_compat=0 / constrained_intra=0 / bframes=3 / b_pyramid=2 / b_adapt=2 / b_bias=0 / direct=3 / weightb=1 / open_gop=0 / weightp=2 / keyint=250 / keyint_min=23 / scenecut=40 / intra_refresh=0 / rc_lookahead=50 / rc=crf / mbtree=1 / crf=18.0 / qcomp=0.60 / qpmin=0 / qpmax=69 / qpstep=4 / ip_ratio=1.40 / aq=1:1.00
Default                        : Yes
Forced                         : No
Matrix coefficients            : BT.709-5, BT.1361, IEC 61966-2-4 709, SMPTE RP177
Audio #1
ID                             : 2
Format                         : AC-3
Format/Info                    : Audio Coding 3
Mode extension                 : CM (complete main)
Format settings, Endianness    : Big
Codec ID                       : A_AC3
Duration                       : 38mn 46s
Bit rate mode                  : Constant
Bit rate                       : 192 Kbps
Channel(s)                     : 2 channels
Channel positions              : Front: L R
Sampling rate                  : 48.0 KHz
Bit depth                      : 16 bits
Compression mode               : Lossy
Stream size                    : 53.3 MiB (5%)
Language                       : Russian
Default                        : No
Forced                         : Yes
Audio #2
ID                             : 3
Format                         : AC-3
Format/Info                    : Audio Coding 3
Mode extension                 : CM (complete main)
Format settings, Endianness    : Big
Codec ID                       : A_AC3
Duration                       : 38mn 46s
Bit rate mode                  : Constant
Bit rate                       : 384 Kbps
Channel(s)                     : 6 channels
Channel positions              : Front: L C R, Side: L R, LFE
Sampling rate                  : 48.0 KHz
Bit depth                      : 16 bits
Compression mode               : Lossy
Stream size                    : 107 MiB (10%)
Default                        : Yes
Forced                         : No

Скриншоты



Внимание! Раздача ведётся путём добавления новых серий.

Внимание! Раздача ведётся путём добавления новых серий; при каждом добавлении создётся новый торрент. Чтобы начать докачку новой серии, пользователям необходимо сделать следующее:
  • Остановить скачивание.
  • Удалить старый торрент у себя из клиента (старые серии удалять не надо).
  • Скачать новый торрент и запустить его у себя в клиенте вместо старого, при этом указать клиенту путь в старую папку куда и должно происходить скачивание новых серий.
    Ваш клиент при этом должен произвести хеширование (проверку) старой папки (если не производит сам - помогите ему сделать это), и будет докачивать только те серии которых у вас ещё нет. Старые серии при этом не удаляются, а продолжают раздаваться!
    Eсли вы уже удалили старые серии, то предотвратить повторную закачку старых серий можно, отжав галочку в соответсвующих местах при запуске нового торрента. По возможности, желательно не удалять старые серии как можно дольше чтобы релизёр не столько продолжал раздавать старые серии, а смог сконцентрироваться на новых.
Вне форума [Профиль] [ЛС]
Похожие темы
Форум Тема Автор Торрент Отв. Посл. сообщение
./templates/default/images/folder_dl.gif Обучающее видео Илья Нодия | Американская рекламная фотография (2015) CamRip [H.264/720p] Omen
1 | 0

0 | 712

16

2015-10-03 20:37
Omen Последнее
Показать сообщения:    
Ответить на тему

Текущее время: Сегодня 18:30

Часовой пояс: GMT + 3



Вы не можете начинать темы
Вы не можете отвечать на сообщения
Вы не можете редактировать свои сообщения
Вы не можете удалять свои сообщения
Вы не можете голосовать в опросах
Вы не можете прикреплять файлы к сообщениям
Вы не можете скачивать файлы