Сегодня идет свободное скачивание без начисления Download

Артисты / Artysci / Сезон: 1 / Серии: 1 из 8 (Моника Стшенпка) [2016, Драма, WEB-DL] Original + Rus Sub (Professor)

Ответить на тему
 
Автор
Сообщение

Omen ®

Стаж: 5 лет 11 месяцев

Сообщений: 184329

Торрент-статистика

Пост 23-Сен-2016 01:00

[Цитировать]

Артисты / Artysci
Год выпуска: 2016
Страна: Польша
Жанр: Драма
Продолжительность: 00:47
Перевод: Субтитры Professor
Режиссёр: Моника Стшенпка
В ролях: Мартин Чарник, Агнешка Пшепюрская, Эдвард Линде-Любашенко, Тадеуш Хук, Ева Дальковская, Ежи Треля, Миколай Грабовский, Томаш Кароляк
Описание: Сериал о закулисье театрального мира. После самоубийства директора одного из варшавских театров, на его место назначается новый амбициозный режиссер из провинции...
Сэмпл: https://www.sendspace.com/file/gdeuvf
Качество: WEB-DL
Формат: AVI
Видео: XviD, 640x352, 16:9, 25.000 fps, 1 046 Kbps
Аудио: MP3, 44.1 KHz, 2 channels, 128 Kbps
Субтитры: русские srt

Список серий

01

MediaInfo

General
Complete name : Artysci.S01E01.PL.WEB-DL.XviD-YL4.avi
Format : AVI
Format/Info : Audio Video Interleave
File size : 399 MiB
Duration : 47mn 4s
Overall bit rate : 1 186 Kbps
Video
ID : 0
Format : MPEG-4 Visual
Format profile : Advanced Simple@L5
Format settings, BVOP : 2
Format settings, QPel : No
Format settings, GMC : No warppoints
Format settings, Matrix : Default (H.263)
Codec ID : XVID
Codec ID/Hint : XviD
Duration : 47mn 4s
Bit rate : 1 046 Kbps
Width : 640 pixels
Height : 352 pixels
Display aspect ratio : 16:9
Frame rate : 25.000 fps
Color space : YUV
Chroma subsampling : 4:2:0
Bit depth : 8 bits
Scan type : Progressive
Compression mode : Lossy
Bits/(Pixel*Frame) : 0.186
Stream size : 352 MiB (88%)
Writing library : XviD 64
Audio
ID : 1
Format : MPEG Audio
Format version : Version 1
Format profile : Layer 3
Codec ID : 55
Codec ID/Hint : MP3
Duration : 47mn 4s
Source duration : 47mn 4s
Bit rate mode : Constant
Bit rate : 128 Kbps
Channel(s) : 2 channels
Sampling rate : 44.1 KHz
Compression mode : Lossy
Stream size : 43.1 MiB (11%)
Alignment : Split accross interleaves
Interleave, duration : 26 ms (0.65 video frame)
Writing library : LAME3.99.5

Скриншоты

Вне форума [Профиль] [ЛС]
Показать сообщения:    
Ответить на тему

Текущее время: Сегодня 20:55

Часовой пояс: GMT + 3



Вы не можете начинать темы
Вы не можете отвечать на сообщения
Вы не можете редактировать свои сообщения
Вы не можете удалять свои сообщения
Вы не можете голосовать в опросах
Вы не можете прикреплять файлы к сообщениям
Вы не можете скачивать файлы