Сегодня идет свободное скачивание без начисления Download

Стелла / Stella / Сезон: 5 / Серии: 1-2 из 10 (Сьюзэн Талли, Тони Дау, Мэнди Флетчер) [2016, Комедия, драма, WEBRip] Original + Rus Sub (Notabenoid)

Ответить на тему
 
Автор
Сообщение

Omen ®

Стаж: 5 лет 7 месяцев

Сообщений: 185427

Торрент-статистика

Пост 22-Сен-2016 01:00

[Цитировать]

Стелла / Stella
Год выпуска: 2016
Страна: Великобритания
Жанр: Комедия, драма
Продолжительность: 2 х ~ 00:45:00
Перевод: Субтитры Notabenoid
Режиссёр: Сьюзэн Талли, Тони Дау, Мэнди Флетчер
В ролях: Рут Джонс, Кэтрин Стюарт, Стив Спайрс, Оуэн Тил, Джулиан Льюис Джонс и др.
Описание: Действие сериала разворачивается в вымышленной деревеньке Понтиберри в Южном Уэльсе. В центре сюжета - 40-летняя многодетная мать-одиночка, ни один день жизни которой не проходит спокойно, а родные, друзья и соседи только ВСЕ усложняют.
Доп. информация: Переведено на Нотабеноиде
Переводчики: 1 серия - moi_aussi, silenico, tenndan, rusl01, angry_racoon, KillKirill, TatyanaIvanovna, cherednichen
2 серия - Solo123, silenico, lizgrin, moi_aussi, TatyanaIvanovna, cherednichen
Огромная благодарность за перевод Solo123.
Сэмпл: https://yadi.sk/i/IHHHFO2buq4Vk
Качество: WEBRip
Формат: AVI
Видео: 720x400 (1.80:1), 25 fps, XviD build 63 ~1498 kbps avg, 0.21 bit/pixel
Аудио: 48 kHz, MPEG Layer 3, 2 ch, ~128.00 kbps avg
Субтитры: Русские (хардсаб)

MediaInfo

Общее
Полное имя : D:\Stella S05\Stella s05e01(silenico.avi
Формат : AVI
Формат/Информация : Audio Video Interleave
Размер файла : 528 Мбайт
Продолжительность : 45 м.
Общий поток : 1640 Кбит/сек
Программа кодирования : Lavf55.19.104
Видео
Идентификатор : 0
Формат : xvid
Идентификатор кодека : xvid
Продолжительность : 45 м.
Битрейт : 1499 Кбит/сек
Ширина : 720 пикселей
Высота : 400 пикселей
Соотношение сторон : 16:9
Частота кадров : 25,000 кадров/сек
Бит/(Пиксели*Кадры) : 0.208
Размер потока : 483 Мбайт (91%)
Аудио
Идентификатор : 1
Формат : MPEG Audio
Версия формата : Version 1
Профиль формата : Layer 3
Режим : Joint stereo
Расширение режима : MS Stereo
Идентификатор кодека : 55
Идентификатор кодека/Подсказка : MP3
Продолжительность : 45 м.
Вид битрейта : Постоянный
Битрейт : 128 Кбит/сек
Каналы : 2 канала
Частота : 48,0 КГц
Метод сжатия : С потерями
Размер потока : 41,2 Мбайт (8%)
Выравнивание : Соединение по промежуткам
Продолжительность промежутка : 24 мс. (0,60 видеокадр)
Время предзагрузки промежутка : 120 мс.

Скриншоты




Внимание! Раздача ведётся путём добавления новых серий

Внимание! Раздача ведётся путём добавления новых серий; при каждом добавлении создаётся новый торрент. Чтобы начать докачку новой серии, пользователям необходимо сделать следующее:
(1) остановить скачивание,
(2) удалить старый торрент у себя из клиента (старые серии удалять не надо),
(3) скачать новый торрент и запустить его у себя в клиенте вместо старого, при этом указать клиенту путь в старую папку куда и должно происходить скачивание новых серий.
Ваш клиент при этом должен произвести хеширование (проверку) старой папки (если не производит сам - помогите ему сделать это), и будет докачивать только те серии которых у вас ещё нет. Старые серии при этом не удаляются, а продолжают раздаваться!
Eсли вы уже удалили старые серии, то предотвратить повторную закачку старых серий можно, отжав галочку в соответствующих местах при запуске нового торрента. По возможности, желательно не удалять старые серии как можно дольше чтобы релизёр не столько продолжал раздавать старые серии, а смог сконцентрироваться на новых.
Вне форума [Профиль] [ЛС]
Показать сообщения:    
Ответить на тему

Текущее время: Сегодня 13:43

Часовой пояс: GMT + 3



Вы не можете начинать темы
Вы не можете отвечать на сообщения
Вы не можете редактировать свои сообщения
Вы не можете удалять свои сообщения
Вы не можете голосовать в опросах
Вы не можете прикреплять файлы к сообщениям
Вы не можете скачивать файлы