Сегодня идет свободное скачивание без начисления Download

Дело Дойлов / Republic Of Doyle / Сезон: 5 / Серии: 1-2 из 16 (Аллан Хоуко) [2014, драма, криминал, комедия, WEB-DLRip] DVO (DreamRecords)

Ответить на тему
 
Автор
Сообщение

Omen ®

Стаж: 5 лет 11 месяцев

Сообщений: 184329

Торрент-статистика

Пост 19-Сен-2016 01:00

[Цитировать]

Дело Дойлов / Republic Of Doyle- Год выпуска: 2014
Страна: Канада | CBC
Жанр: драма, криминал, комедия
Продолжительность: ~ 42 минуты
Перевод: Профессиональный (двухголосый закадровый) - (DreamRecords)
Русские субтитры: нет
Режиссёр: Аллан Хоуко
В ролях: Аллан Хоуко, Шон МакГинли, Линда Бойд, Рэйчел Билсон, Кристин Пеллерин и др.
Описание: Вам приходило когда-либо в голову нанять частного детектива? Если да, то идеальное детективное агенство – это «Дойл&Дойл» - агенство отца и сына Джека и Мелеки Дойлов. Детектив Джейк Дойл готов взяться за самое запутанное дело, в конце концов у него был самый лучший учитель – его отец и партнер Мелеки Дойл, бывший полицейский старой школы в стиле Коломбо, под внешним добродушием которого прячется железный характер. Агенство «Дойл&Дойл» занимается любыми расследованиями – от супружеской измены, поджогов, судебных ошибок до краж произведений искусств и сбежавших жен.-Доп. информация:Озвучка: DreamRecords
Автор постера: Mystery
Монтаж и сведение звука: Алексей Фокин
Текст читали:
  • Владислав Данилов
  • Полина Касаткина
    -
    Сэмпл-Качество: WEB-DLRip
    Формат: AVI
    Видео кодек: XviD
    Аудио кодек: MP3
    Видео: 720x400, 1 295 Kbps, 23.976 fps, 0.188 bit/pixel
    Аудио: MP3, 48 kHz, 2 ch, 192 kbps-

MediaInfo

Код:
Format                      : AVI
Format/Info                 : Audio Video Interleave
File size                   : 470 MiB
Duration                    : 43 min
Overall bit rate            : 1 497 kb/s
Writing application         : VirtualDubModRus 1.5.10.2 (build 2542/release)
Writing library             : VirtualDubMod build 2542/release
Video
ID                          : 0
Format                      : MPEG-4 Visual
Format profile              : Advanced Simple@L5
Format settings, BVOP       : 1
Format settings, QPel       : No
Format settings, GMC        : No warppoints
Format settings, Matrix     : Default (MPEG)
Codec ID                    : XVID
Codec ID/Hint               : XviD
Duration                    : 43 min
Bit rate                    : 1 295 kb/s
Width                       : 720 pixels
Height                      : 400 pixels
Display aspect ratio        : 16:9
Frame rate                  : 23.976 (23976/1000) FPS
Color space                 : YUV
Chroma subsampling          : 4:2:0
Bit depth                   : 8 bits
Scan type                   : Progressive
Compression mode            : Lossy
Bits/(Pixel*Frame)          : 0.188
Stream size                 : 407 MiB (87%)
Writing library             : XviD 73
Audio
ID                          : 1
Format                      : MPEG Audio
Format version              : Version 1
Format profile              : Layer 3
Mode                        : Joint stereo
Codec ID                    : 55
Codec ID/Hint               : MP3
Duration                    : 43 min
Bit rate mode               : Constant
Bit rate                    : 192 kb/s
Channel(s)                  : 2 channels
Sampling rate               : 48.0 kHz
Compression mode            : Lossy
Stream size                 : 60.3 MiB (13%)
Alignment                   : Aligned on interleaves
Interleave, duration        : 42  ms (1.00 video frame)
Interleave, preload duratio : 504  ms
[/spoiler]

Скриншоты

Внимание! Раздача ведется путем добавления серий:

Код:
Внимание! Раздача ведётся путём добавления новых серий; при каждом добавлении создётся новый торрент. Чтобы начать докачку новой серии, пользователям необходимо сделать следующее:
(1) остановить скачивание,
(2) удалить старый торрент у себя из клиента (старые серии удалять не надо),
(3) скачать новый торрент и запустить его у себя в клиенте вместо старого, при этом указать клиенту путь в старую папку куда и должно происходить скачивание новых серий.
Ваш клиент при этом должен произвести хеширование (проверку) старой папки (если не производит сам - помогите ему сделать это), и будет докачивать только те серии которых у вас ещё нет. Старые серии при этом не удаляются, а продолжают раздаваться!
Eсли вы уже удалили старые серии, то предотвратить повторную закачку старых серий можно, отжав галочку в соответсвующих местах при запуске нового торрента. По возможности, желательно не удалять старые серии как можно дольше чтобы релизёр не столько продолжал раздавать старые серии, а смог сконцентрироваться на новых.
-[url=viewtopic.php?t=5284023]Раздача в WEB-DL 720p[/url]-Добавлена 2 серия!-
Вне форума [Профиль] [ЛС]
Показать сообщения:    
Ответить на тему

Текущее время: Сегодня 20:29

Часовой пояс: GMT + 3



Вы не можете начинать темы
Вы не можете отвечать на сообщения
Вы не можете редактировать свои сообщения
Вы не можете удалять свои сообщения
Вы не можете голосовать в опросах
Вы не можете прикреплять файлы к сообщениям
Вы не можете скачивать файлы