Сегодня идет свободное скачивание без начисления Download

Наемник Куорри / Quarry / Сезон 1 / Серии 1-2 (8) (Грег Яйтанс, Джон Хиллкоут) [2016, США, драма, криминал, HDTV 720p] MVO (AlexFilm)

Ответить на тему
 
Автор
Сообщение

Omen ®

Стаж: 5 лет 10 месяцев

Сообщений: 184329

Торрент-статистика

Пост 19-Сен-2016 01:00

[Цитировать]

--Наемник Куорри / Quarry
1 сезон, 1-2 серии
-- Год выпуска: 2016
Страна: США
Жанр: драма, криминал
Продолжительность: ~ 01:15:00
Озвучание: профессиональное многоголосое закадровое (AlexFilm)-Режиссёры: Грег Яйтанс, Джон Хиллкоут
В ролях: Логан Маршалл-Грин, Джоди Бальфур, Питер Муллан, Никки Амука-Бёрд, Дэймон Херриман, Эдоардо Баллерини, Хлоя Элиз, Джош Рэндэлл, Мустафа Жакир, Джошуа Дж. Уильямс-Описание: Дело происходит в 1973 году. Снайпер Куорри возвращается из третьей военной командировки во Вьетнам и обнаруживает, что люди не видят в нём героя, скорее демонизируя образ американского солдата, а старые друзья так и вовсе от него отвернулись. От разочарования он подаётся в разветвлённую сеть наёмных убийц и коррупционеров, действующую на всей протяжённости Миссисипи.-Релиз:
Перевод: Константин Кривоногов
Монтаж и сведение звука: Михаил Суслов
Роли озвучивали:
  • Светлана Чистохина
  • Алёна Андронова
  • Михаил Суслов
  • Роман Сопко
  • Рустам Шайхиев-Сэмпл: http://sendfile.su/1264886- -Качество: WEB-DL 720p
    Формат: MKV
    Видео: 1280x718 (16:9), 23.976 fps, MPEG-4 AVC ~2387 kbps avg, 0.108 bit/pixel
    Аудио Rus: 48 kHz, AC3 Dolby Digital, 3/2 (L,C,R,l,r) + LFE ch, ~384.00 kbps
    Аудио Eng: 48 kHz, AC3 Dolby Digital, 3/2 (L,C,R,l,r) + LFE ch, ~384.00 kbps
    Субтитры: нет-

Скриншоты

MediaInfo

Формат : Matroska
Версия формата : Version 4 / Version 2
Размер файла : 1,71 Гбайт
Продолжительность : 1 ч. 15 м.
Общий поток : 3219 Кбит/сек
Название фильма : Quarry 1x01 @ AlexFilm
Дата кодирования : UTC 2016-09-11 17:42:28
Программа кодирования : mkvmerge v7.1.0 ('Good Love') 64bit built on Jul 27 2014 13:06:55
Библиотека кодирования : libebml v1.3.0 + libmatroska v1.4.1
Видео
Идентификатор : 1
Формат : AVC
Формат/Информация : Advanced Video Codec
Профиль формата : High@L4.1
Параметр CABAC формата : Да
Параметр ReFrames формата : 5 кадров
Идентификатор кодека : V_MPEG4/ISO/AVC
Продолжительность : 1 ч. 15 м.
Битрейт : 2387 Кбит/сек
Ширина : 1280 пикселей
Высота : 718 пикселей
Соотношение сторон : 16:9
Режим частоты кадров : Постоянный
Частота кадров : 23,976 (24000/1001) кадра/сек
Цветовое пространство : YUV
Субдискретизация насыщенности : 4:2:0
Битовая глубина : 8 бит
Тип развёртки : Прогрессивная
Бит/(Пиксели*Кадры) : 0.108
Размер потока : 1,27 Гбайт (74%)
Библиотека кодирования : x264 core 148 r2705 3f5ed56
Настройки программы : cabac=1 / ref=5 / deblock=1:0:0 / analyse=0x3:0x113 / me=umh / subme=8 / psy=1 / psy_rd=1.00:0.00 / mixed_ref=1 / me_range=16 / chroma_me=1 / trellis=1 / 8x8dct=1 / cqm=0 / deadzone=21,11 / fast_pskip=1 / chroma_qp_offset=-2 / threads=18 / lookahead_threads=3 / sliced_threads=0 / nr=0 / decimate=1 / interlaced=0 / bluray_compat=0 / constrained_intra=0 / bframes=3 / b_pyramid=2 / b_adapt=2 / b_bias=0 / direct=3 / weightb=1 / open_gop=0 / weightp=2 / keyint=250 / keyint_min=23 / scenecut=40 / intra_refresh=0 / rc_lookahead=50 / rc=crf / mbtree=1 / crf=18.0 / qcomp=0.60 / qpmin=0 / qpmax=69 / qpstep=4 / ip_ratio=1.40 / aq=1:1.00
Default : Да
Forced : Нет
Цветовой диапазон : Limited
Коэффициенты матрицы : BT.709
Аудио #1
Идентификатор : 2
Формат : AC-3
Формат/Информация : Audio Coding 3
Расширение режима : CM (complete main)
Параметр Endianness формата : Big
Идентификатор кодека : A_AC3
Продолжительность : 1 ч. 15 м.
Вид битрейта : Постоянный
Битрейт : 384 Кбит/сек
Каналы : 6 каналов
Расположение каналов : Front: L C R, Side: L R, LFE
Частота : 48,0 КГц
Частота кадров : 31,250 кадров/сек (1536 spf)
Метод сжатия : С потерями
Размер потока : 208 Мбайт (12%)
Заголовок : DD5.1 AlexFilm
Язык : Russian
Default : Да
Forced : Нет
Аудио #2
Идентификатор : 3
Формат : AC-3
Формат/Информация : Audio Coding 3
Расширение режима : CM (complete main)
Параметр Endianness формата : Big
Идентификатор кодека : A_AC3
Продолжительность : 1 ч. 15 м.
Вид битрейта : Постоянный
Битрейт : 384 Кбит/сек
Каналы : 6 каналов
Расположение каналов : Front: L C R, Side: L R, LFE
Частота : 48,0 КГц
Частота кадров : 31,250 кадров/сек (1536 spf)
Метод сжатия : С потерями
Размер потока : 208 Мбайт (12%)
Заголовок : DD5.1 Original
Язык : English
Default : Нет
Forced : Нет

Внимание! Раздача ведётся путём добавления новых серий

Внимание! Раздача ведётся путём добавления новых серий; при каждом добавлении создаётся новый торрент. Чтобы начать докачку новой серии, пользователям необходимо сделать следующее:
(1) остановить скачивание,
(2) удалить старый торрент у себя из клиента (старые серии удалять не надо),
(3) скачать новый торрент и запустить его у себя в клиенте вместо старого, при этом указать клиенту путь в старую папку куда и должно происходить скачивание новых серий.
Ваш клиент при этом должен произвести хеширование (проверку) старой папки (если не производит сам - помогите ему сделать это), и будет докачивать только те серии которых у вас ещё нет. Старые серии при этом не удаляются, а продолжают раздаваться!
Eсли вы уже удалили старые серии, то предотвратить повторную закачку старых серий можно, отжав галочку в соответствующих местах при запуске нового торрента. По возможности, желательно не удалять старые серии как можно дольше чтобы релизёр не столько продолжал раздавать старые серии, а смог сконцентрироваться на новых.
--
Вне форума [Профиль] [ЛС]
Показать сообщения:    
Ответить на тему

Текущее время: Сегодня 22:25

Часовой пояс: GMT + 3



Вы не можете начинать темы
Вы не можете отвечать на сообщения
Вы не можете редактировать свои сообщения
Вы не можете удалять свои сообщения
Вы не можете голосовать в опросах
Вы не можете прикреплять файлы к сообщениям
Вы не можете скачивать файлы