Сегодня идет свободное скачивание без начисления Download

Тайны / Cut! / Сезон: 3 / Серии: 1-5 из 70 (Стефан Мёнье / Stephane Meunier, Давид Уррег / David Hourregue) [2015, Франция, триллер, драма, DVB] Original (Fre) + Rus Sub (Eclair Media)

Ответить на тему
 
Автор
Сообщение

Omen ®

Стаж: 6 лет 1 месяц

Сообщений: 184308

Торрент-статистика

Пост 18-Сен-2016 01:01

[Цитировать]

Тайны
Cut!- Год выпуска: 2015
Страна: Франция
Жанр: триллер, драма
Продолжительность: 00:26:00Перевод: Субтитры (русский перевод И.Безлюдной, И.Рыбкиной, Éclair Media)
Режиссёр: Стефан Мёнье / Stéphane Meunier, Давид Уррег / David Hourrègue
В ролях: Амбруаз Мишель / Ambroise Michel (Adil Vila), Антуан Стип / Antoine Stip (Charles de Kervelac), Себастьен Капграс / Sebastien Capgras (Jules Park), Юсаа Рават / Youshaa Ravate (César de Kervalec), Венсан Верминьон / Vincent Vermignon (Stefan), Эмили Гранье / Emilie Granier (Billie)
Описание: Преступность, любовь, политика и жизнь одной семьи на Реюньоне. Новый амбициозный интерактивный телесериал производства ALP и Terence Films построен на событиях и откликах из социальных сетей, Facebook и Twitter. Ни Жюль, ни Адил не могут ничего узнать об исчезнувшей Лоре. В это время на остров прибывают сестры Мари и Ева Дерменонвиль, котрые стремятся раскрыть загадочную смерть своей матери 18-лет назад. Шарль де Кервелак потерял свой лоск, выйдя из тюрьмы он все еще носит электронный браслет и не может покидать территорию острова. Мэром Сен-Поля избрана Билли. Неожиданно на Реюньоне появляется отец Адила...
Доп. информация: Hot Bird (13.0°E) TV5MONDE Europe DVB-S

Качество: DVB
Формат: MKV
Видео: MPEG Video 2, 720x576@1024x576 (16:9), 25 fps, ~2929 kbps avg, 0.282 bit/pixel
Аудио: MPEG Audio 2, 2 ch, 48 kHz, 192 kbps - французский
Субтитры: русские, немецкие, нидерландские, румынские - prerendered (IDX+SUB); английские, французские - softsub (SRT)

Список серий

Сезон 3, Эпизод 01: Коллизия / Collisions (2015)Сезон 3, Эпизод 02: Цель / Une cible (2015)Сезон 3, Эпизод 03: Пойми меня / Comprends-moi (2015)Сезон 3, Эпизод 04: Испуг / Grosse frayeur (2015)Сезон 3, Эпизод 05: Медовый месяц / Le voyage de noces (2015)

MediaInfo

GeneralUnique ID : 211949151091421426329668273040550144839 (0x9F73EBF30D883089A5F3AACEBDBA2B47)Complete name : [apreder]Cut_s.3_ep.01(2015)DVB.mkvFormat : MatroskaFormat version : Version 2File size : 589 MiBDuration : 25 min 52 sOverall bit rate mode : VariableOverall bit rate : 3 184 kb/sMovie name : Cut!Released date : 2015-00-00Encoded date : UTC 2016-09-17 13:06:20Writing application : mkvmerge v9.4.2 ('So High') 64bitWriting library : libebml v1.3.4 + libmatroska v1.4.5Cover : YesAttachments : cover.jpg / small_cover.jpgACTOR : Antoine Stip, Ambroise Michel, Sebastien CapgrasDIRECTOR : David Hourregue, Stephane MeunierGENRE : DramaIMDB : tt5502068KEYWORDS : rutracker.orgLAW_RATING : 16+SUMMARY : s.3, ep.01 Collisions
VideoID : 1Format : MPEG VideoFormat version : Version 2Format profile : Main@MainFormat settings, BVOP : YesFormat settings, Matrix : CustomFormat settings, GOP : M=4, N=12Format settings, picture structure : FrameCodec ID : V_MPEG2Codec ID/Info : MPEG 1 or 2 VideoDuration : 25 min 52 sBit rate mode : VariableBit rate : 2 929 kb/sWidth : 720 pixelsHeight : 576 pixelsDisplay aspect ratio : 16:9Frame rate mode : ConstantFrame rate : 25.000 FPSStandard : PALColor space : YUVChroma subsampling : 4:2:0Bit depth : 8 bitsScan type : InterlacedScan order : Top Field FirstCompression mode : LossyBits/(Pixel*Frame) : 0.282Time code of first frame : 00:00:00:00Time code source : Group of pictures headerGOP, Open/Closed : OpenGOP, Open/Closed of first frame : ClosedStream size : 542 MiB (92%)Default : YesForced : No
AudioID : 2Format : MPEG AudioFormat version : Version 1Format profile : Layer 2Mode : Joint stereoMode extension : Intensity Stereo + MS StereoCodec ID : A_MPEG/L2Codec ID/Hint : MP2Duration : 25 min 52 sBit rate mode : ConstantBit rate : 192 kb/sChannel(s) : 2 channelsSampling rate : 48.0 kHzCompression mode : LossyStream size : 35.5 MiB (6%)Language : FrenchDefault : YesForced : No
Text #1ID : 3Format : VobSubCodec ID : S_VOBSUBCodec ID/Info : Picture based subtitle format used on DVDsLanguage : RussianDefault : NoForced : No
Text #2ID : 4Format : UTF-8Codec ID : S_TEXT/UTF8Codec ID/Info : UTF-8 Plain TextLanguage : EnglishDefault : NoForced : No
Text #3ID : 5Format : UTF-8Codec ID : S_TEXT/UTF8Codec ID/Info : UTF-8 Plain TextLanguage : FrenchDefault : NoForced : No
Text #4ID : 6Format : VobSubCodec ID : S_VOBSUBCodec ID/Info : Picture based subtitle format used on DVDsLanguage : GermanDefault : NoForced : No
Text #5ID : 7Format : VobSubCodec ID : S_VOBSUBCodec ID/Info : Picture based subtitle format used on DVDsLanguage : DutchDefault : NoForced : No
Text #6ID : 8Format : VobSubCodec ID : S_VOBSUBCodec ID/Info : Picture based subtitle format used on DVDsLanguage : RomanianDefault : NoForced : No

Скриншоты


Резервные скриншоты


-

Внимание! Раздача ведётся путём добавления новых выпусков

Внимание! Раздача ведётся путём добавления новых выпусков; при каждом добавлении создаётся новый торрент. Чтобы начать докачку нового выпуска, пользователям необходимо сделать следующее:
(1) остановить скачивание,
(2) удалить старый торрент у себя из клиента (старые серии удалять не надо),
(3) скачать новый торрент и запустить его у себя в клиенте вместо старого, при этом указать клиенту путь в старую папку куда и должно происходить скачивание новых выпусков.
Ваш клиент при этом должен произвести хеширование (проверку) старой папки (если не производит сам - помогите ему сделать это). В результате он будет докачивать только те выпуски, которых у Вас ещё нет. Старые выпуски при этом не удаляются, а продолжают раздаваться!
Eсли Вы уже удалили старые выпуски, то предотвратить их повторную закачку можно, сняв галочки в соответствующих местах при запуске нового торрента. По возможности, желательно не удалять старые выпуски как можно дольше, чтобы релизёр не только продолжал раздавать старые выпуски, но и смог сконцентрироваться на новых.
-[3'273]
Вне форума [Профиль] [ЛС]
Похожие темы
Форум Тема Автор Торрент Отв. Посл. сообщение
./templates/default/images/folder_dl.gif Приключения и квесты Secrets of the Dark: The Flower of Shadow Collector\'s Edition / Тайны Тьмы: Цветок Теней. Коллекционное издание [P] [RUS / ENG] (2014) Omen
6 | 0

0 | 1533

21

2015-06-11 12:04
Omen Последнее
./templates/default/images/folder_dl.gif Фантастика, фэнтези, ужасы, мистика Злотников Роман, Ремер Михаил - Исправленная летопись 02: Тайны митрополита [Максим Суслов, 2016 г., 112 kbps, MP3] Omen
1 | 0

0 | 991

7

2016-08-23 01:01
Omen Последнее
Показать сообщения:    
Ответить на тему

Текущее время: Сегодня 20:14

Часовой пояс: GMT + 3



Вы не можете начинать темы
Вы не можете отвечать на сообщения
Вы не можете редактировать свои сообщения
Вы не можете удалять свои сообщения
Вы не можете голосовать в опросах
Вы не можете прикреплять файлы к сообщениям
Вы не можете скачивать файлы