Сегодня идет свободное скачивание без начисления Download

Документалистика сегодня! / Documentary Now! / Сезон: 2 / Серии 1 (7) (Александр Буоно, Риз Томас) [2016, комедия, WEB-DL 720p] MVO (Ozz) + Original + Subs (Rus, Eng)

Ответить на тему
 
Автор
Сообщение

Omen ®

Стаж: 5 лет 6 месяцев

Сообщений: 186946

Торрент-статистика

Пост 17-Сен-2016 01:00

[Цитировать]

Документалистика сегодня! - Второй сезон
Documentary Now! - Second Season- Год выхода: 2016
Страна: США
Жанр: комедия
Продолжительность: ~22 мин
Перевод: Профессиональный (многоголосый закадровый) Ozz-Режиссер: Александр Буоно, Риз ТомасВ ролях: Фред Армисен, Билл Хейдер, Хелен Миррен, Ирвинг Азофф, Кэмерон Кроу, Дэрил Холл, Кенни Логгинс, Алана Хаим, Чак Клостерман, Даниэль Хаим-Описание: «Документалистика сегодня» — псевдодокументальное пародийное хулиганское шоу команды SNL в лице Фреда Армисена, Билла Хейдера, Сета Майерса и Риса Томаса. Каждая серия представляет собой издевательство над каким-нибудь знаменитым историческим документальным фильмом, однако просмотр неиллюзорно доставляет и без знания оригинальных реалий. Но даже при поверхностном знакомстве с культурным контекстом «Документалистика сегодня» превращается в изысканное юмористическое блюдо для гурманов.- -Sample- Роли озвучивают: |Иван Кузнецов, Елена Каламурза и Алексей Серегин|
Автор перевода: |Василий Мерзляков|
Подготовлено: Ozz-Качество: WEB-DL 720p
Формат: mkv
Видео кодек: x264
Аудио кодек: AC3
Видео: 1280x718 at 23.976 fps, AVC, 4000 kbps avg, 0.181 b/pixel
Аудио #1: Russian 48.0 KHz, AC3 , 2 channels, 192 Kbps |Ozz|
Аудио #2: English 48.0 KHz, AC3 , 2 channels, 192 Kbps
Субтитры: Russian , English - (srt)

MediaInfo

Код:
Общее
Уникальный идентификатор                 : 183161121800842323273168935362855477159 (0x89CB8C85859076E2B81D716974849FA7)
Полное имя                               : H:\Documentary.Now.S02.720p.WEB-DL.Rus.Eng.Ozz\Documentary.Now.S02E02.720p.WEB-DL.Rus.Eng.Ozz.mkv
Формат                                   : Matroska
Версия формата                           : Version 4 / Version 2
Размер файла                             : 683 Мбайт
Продолжительность                        : 21 м.
Общий поток                              : 4419 Кбит/сек
Дата кодирования                         : UTC 2016-09-16 13:45:56
Программа кодирования                    : mkvmerge v6.3.0 ('You can't stop me!') built on Jun 28 2013 20:09:41
Библиотека кодирования                   : libebml v1.3.0 + libmatroska v1.4.0
Видео
Идентификатор                            : 1
Формат                                   : AVC
Формат/Информация                        : Advanced Video Codec
Профиль формата                          : High@L3.1
Параметр CABAC формата                   : Нет
Параметр ReFrames формата                : 2 кадра
Идентификатор кодека                     : V_MPEG4/ISO/AVC
Продолжительность                        : 21 м.
Битрейт                                  : 3947 Кбит/сек
Ширина                                   : 1280 пикселей
Высота                                   : 718 пикселей
Соотношение сторон                       : 16:9
Режим частоты кадров                     : Постоянный
Частота кадров                           : 23,976 кадра/сек
Цветовое пространство                    : YUV
Субдискретизация насыщенности            : 4:2:0
Битовая глубина                          : 8 бит
Тип развёртки                            : Прогрессивная
Бит/(Пиксели*Кадры)                      : 0.179
Размер потока                            : 610 Мбайт (89%)
Язык                                     : English
Default                                  : Да
Forced                                   : Нет
Основные цвета                           : BT.709
Характеристики трансфера                 : BT.709
Коэффициенты матрицы                     : BT.709
Аудио #1
Идентификатор                            : 2
Формат                                   : AC-3
Формат/Информация                        : Audio Coding 3
Расширение режима                        : CM (complete main)
Параметр Endianness формата              : Big
Идентификатор кодека                     : A_AC3
Продолжительность                        : 21 м.
Вид битрейта                             : Постоянный
Битрейт                                  : 192 Кбит/сек
Каналы                                   : 2 канала
Расположение каналов                     : Front: L R
Частота                                  : 48,0 КГц
Битовая глубина                          : 16 бит
Метод сжатия                             : С потерями
Размер потока                            : 29,7 Мбайт (4%)
Заголовок                                : MVO Ozz-tv
Язык                                     : Russian
Default                                  : Да
Forced                                   : Нет
Аудио #2
Идентификатор                            : 3
Формат                                   : AC-3
Формат/Информация                        : Audio Coding 3
Расширение режима                        : CM (complete main)
Параметр Endianness формата              : Big
Идентификатор кодека                     : A_AC3
Продолжительность                        : 21 м.
Вид битрейта                             : Постоянный
Битрейт                                  : 192 Кбит/сек
Каналы                                   : 2 канала
Расположение каналов                     : Front: L R
Частота                                  : 48,0 КГц
Битовая глубина                          : 16 бит
Метод сжатия                             : С потерями
Размер потока                            : 29,7 Мбайт (4%)
Язык                                     : English
Default                                  : Нет
Forced                                   : Нет
Текст #1
Идентификатор                            : 4
Формат                                   : UTF-8
Идентификатор кодека                     : S_TEXT/UTF8
Идентификатор кодека/Информация          : UTF-8 Plain Text
Заголовок                                : Forced
Язык                                     : Russian
Default                                  : Да
Forced                                   : Нет
Текст #2
Идентификатор                            : 5
Формат                                   : UTF-8
Идентификатор кодека                     : S_TEXT/UTF8
Идентификатор кодека/Информация          : UTF-8 Plain Text
Заголовок                                : Василий Мерзляков
Язык                                     : Russian
Default                                  : Нет
Forced                                   : Нет
Текст #3
Идентификатор                            : 6
Формат                                   : UTF-8
Идентификатор кодека                     : S_TEXT/UTF8
Идентификатор кодека/Информация          : UTF-8 Plain Text
Язык                                     : English
Default                                  : Нет
Forced                                   : Нет

Screenshots

Внимание! Раздача ведётся путём добавления новых серий

Внимание! Раздача ведётся путём добавления новых серий; при каждом добавлении создаётся новый торрент. Чтобы начать докачку новой серии, пользователям необходимо сделать следующее:
(1) остановить скачивание,
(2) удалить старый торрент у себя из клиента (старые серии удалять не надо),
(3) скачать новый торрент и запустить его у себя в клиенте вместо старого, при этом указать клиенту путь в старую папку куда и должно происходить скачивание новых серий.
Ваш клиент при этом должен произвести хеширование (проверку) старой папки (если не производит сам - помогите ему сделать это), и будет докачивать только те серии которых у вас ещё нет. Старые серии при этом не удаляются, а продолжают раздаваться!
Eсли вы уже удалили старые серии, то предотвратить повторную закачку старых серий можно, отжав галочку в соответствующих местах при запуске нового торрента. По возможности, желательно не удалять старые серии как можно дольше чтобы релизёр не столько продолжал раздавать старые серии, а смог сконцентрироваться на новых.
-
Вне форума [Профиль] [ЛС]
Похожие темы
Форум Тема Автор Торрент Отв. Посл. сообщение
./templates/default/images/folder_dl.gif Документальные фильмы и телепередачи Малороссия (Украина ДНР) [Документальный, 18.07.2017] WEBRip 720p victorhulcko
1 | 0

0 | 4167

5

2017-07-23 10:45
victorhulcko Последнее
Показать сообщения:    
Ответить на тему

Текущее время: Сегодня 17:49

Часовой пояс: GMT + 3



Вы не можете начинать темы
Вы не можете отвечать на сообщения
Вы не можете редактировать свои сообщения
Вы не можете удалять свои сообщения
Вы не можете голосовать в опросах
Вы не можете прикреплять файлы к сообщениям
Вы не можете скачивать файлы