Сегодня идет свободное скачивание без начисления Download

Американская история ужасов / American Horror Story / Сезон: 6 / Серии: 1 из 10 (Брэдли Букер, Майкл Аппендаль, Альфонсо Гомез-Рейон, Майкл Леманн) [2016, США, Ужасы, фэнтези, триллер, драма, WEBRip 1080p] MVO (Novamedia) + Original

Ответить на тему
 
Автор
Сообщение

Omen ®

Стаж: 5 лет 9 месяцев

Сообщений: 184402

Торрент-статистика

Пост 16-Сен-2016 01:00

[Цитировать]

Американская история ужасов: Мой кошмар в Роаноке / American Horror Story: My Roanoke Nightmare
Год выпуска: 2016
Страна: США
Жанр: Ужасы, фэнтези, триллер, драма
Продолжительность: 00:45:00
Перевод: Профессиональный (многоголосый закадровый) Novamedia по заказу Amedia
Режиссёр: Брэдли Букер, Майкл Аппендаль, Альфонсо Гомез-Рейон, Майкл Леманн
В ролях: Сара Полсон, Анджела Бассетт, Куба Гудинг-мл., Эван Питерс, Денис О'Харе, Кэти Бэйтс, Финн Уиттрок, Уэс Бентли, Мэтт Бомер, Леди Гага, Шайенн Джексон, Лесли Джордан, Лили Рэйб, Адина Портер, Андрэ Холланд
Описание: Сюжет нового сезона сериала строится на 2 временных линиях – в настоящем и американском прошлом эпохи колонизации. Одним из событий, задействованных в сериале, является таинственное исчезновение колонистов, пропавших на острове Кроатоан в конце 16 века.
Сэмпл: http://multi-up.com/1118176
Качество: WEBRip 1080p
Контейнер: MKV
Видео: AVC, 1920x1080 (16:9), 23.976 fps, ~11200 kbps
Аудио: AC3, 48 kHz, 2 ch, 192 kbps
Аудио 2: AC3, 48 kHz, 6 ch, 384 kbps
Субтитры: Английские

MediaInfo

General
Unique ID : 171541965043815944603599534329042348229 (0x810DC7DD3EE5BBE3BA9A86AFB6C4A8C5)
Complete name : D:\Torrent\American.Horror.Story.S06.1080p.AMZN.WEBRip.DD5.1.x264\American.Horror.Story.S06E01.1080p.AMZN.WEBRip.DD5.1.x264.mkv
Format : Matroska
Format version : Version 4 / Version 2
File size : 3.69 GiB
Duration : 44 min 37 s
Overall bit rate mode : Variable
Overall bit rate : 11.8 Mb/s
Encoded date : UTC 2016-09-15 12:32:45
Writing application : mkvmerge v9.4.2 ('So High') 64bit
Writing library : libebml v1.3.4 + libmatroska v1.4.5
Cover : Yes
Attachments : cover.ahs.jpg
Video
ID : 1
Format : AVC
Format/Info : Advanced Video Codec
Format profile : High@L4
Format settings, CABAC : Yes
Format settings, ReFrames : 4 frames
Codec ID : V_MPEG4/ISO/AVC
Duration : 44 min 37 s
Bit rate mode : Variable
Bit rate : 11.2 Mb/s
Maximum bit rate : 15.0 Mb/s
Width : 1 920 pixels
Height : 1 080 pixels
Display aspect ratio : 16:9
Frame rate mode : Constant
Frame rate : 23.976 (24000/1001) FPS
Color space : YUV
Chroma subsampling : 4:2:0
Bit depth : 8 bits
Scan type : Progressive
Bits/(Pixel*Frame) : 0.226
Stream size : 3.51 GiB (95%)
Language : English
Default : Yes
Forced : No
Color range : Limited
Color primaries : BT.709
Transfer characteristics : BT.709
Matrix coefficients : BT.709
Audio #1
ID : 2
Format : AC-3
Format/Info : Audio Coding 3
Mode extension : CM (complete main)
Format settings, Endianness : Big
Codec ID : A_AC3
Duration : 44 min 37 s
Bit rate mode : Constant
Bit rate : 192 kb/s
Channel(s) : 2 channels
Channel positions : Front: L R
Sampling rate : 48.0 kHz
Frame rate : 31.250 FPS (1536 spf)
Compression mode : Lossy
Stream size : 61.3 MiB (2%)
Language : Russian
Default : Yes
Forced : No
Audio #2
ID : 3
Format : AC-3
Format/Info : Audio Coding 3
Mode extension : CM (complete main)
Format settings, Endianness : Big
Codec ID : A_AC3
Duration : 44 min 37 s
Bit rate mode : Constant
Bit rate : 384 kb/s
Channel(s) : 6 channels
Channel positions : Front: L C R, Side: L R, LFE
Sampling rate : 48.0 kHz
Frame rate : 31.250 FPS (1536 spf)
Compression mode : Lossy
Stream size : 123 MiB (3%)
Language : English
Default : No
Forced : No
Text
ID : 4
Format : UTF-8
Codec ID : S_TEXT/UTF8
Codec ID/Info : UTF-8 Plain Text
Duration : 44 min 34 s
Bit rate : 55 b/s
Count of elements : 695
Stream size : 18.2 KiB (0%)
Language : English
Default : No
Forced : No

Скриншоты



Вне форума [Профиль] [ЛС]
Показать сообщения:    
Ответить на тему

Текущее время: Сегодня 03:01

Часовой пояс: GMT + 3



Вы не можете начинать темы
Вы не можете отвечать на сообщения
Вы не можете редактировать свои сообщения
Вы не можете удалять свои сообщения
Вы не можете голосовать в опросах
Вы не можете прикреплять файлы к сообщениям
Вы не можете скачивать файлы