Сегодня идет свободное скачивание без начисления Download

Сотня / The 100 / Сезон: 3 / Серии: 1-16 из 16 (Дин Уайт, Джон Беринг, Милан Чейлов) [2016, США, Фантастика, драма, триллер, BDRip 720p] MVO (AlexFilm) + MVO (LostFilm) + Original + Subs (Rus, Eng)

Ответить на тему
 
Автор
Сообщение

Omen ®

Стаж: 5 лет 6 месяцев

Сообщений: 186946

Торрент-статистика

Пост 16-Сен-2016 01:00

[Цитировать]

Сотня / The 100- Год выпуска: 2016
Страна: США
Жанр: Фантастика, драма, триллер
Продолжительность: ~00:45:00-Перевод: Профессиональный (многоголосый закадровый) | AlexFilm
Перевод: Профессиональный (многоголосый закадровый) | LostFilm-Режиссёр: Дин Уайт, Джон Беринг, Милан Чейлов-В ролях: Элиза Тейлор-Коттер, Мари Авгеропулос, Сачин Сахель, Линдси Морган, Женевьев Бюкнер, Ричард Хэрмон, Джарод Джозеф, Челси Рейст, Крис Браунинг, Джош Ссеттуба-Описание: События в сериале начинают разворачиваться по прошествии девяносто семи лет после того как всю цивилизацию уничтожила страшная атомная война.
Высоко в космосе на орбите Земли летает большой космический корабль, именно здесь находятся те, кто выжил после страшной катастрофы. Они единственные кто пережил этот ужасный катаклизм который устроило человечество. Именно с этого последнего пристанища людей на Землю отправляют космический челнок на котором находятся сто малолетних преступников...-- by messafan.-Цитата:
Цитата:
Отдельное спасибо студии AlexFilm за сотрудничество и предоставленные голоса.
Работа со звуком - kmarats.
При поддержке kmarats, Serdg71, Plazik, messafan.
-Качество: BDRip 720p
Контейнер: MKV
Видео: 1280x720, 23.976 fps, MPEG-4 AVC, ~6000 kbps avg, 0.263 bit/pixel
Аудио: 48 kHz, AC3, 3/2 (L,C,R,l,r) + LFE ch, ~640.00 kbps avg | AlexFilm
Аудио: 48 kHz, AC3, 3/2 (L,C,R,l,r) + LFE ch, ~640.00 kbps avg | LostFilm
Аудио: 48 kHz, AC3, 3/2 (L,C,R,l,r) + LFE ch, ~640.00 kbps avg
Субтитры: Russian (AlexFilm), English-

Список серий

01. Ван'эда, Часть 1 / Wanheda: Part One
02. Ван'эда, Часть 2 / Wanheda: Part Two
03. Всяк сюда входящий / Ye Who Enter Here
04. Следи за престолом / Watch the Thrones
05. Акелдама / Hakeldama
06. Жестокая жатва / Bitter Harvest
07. Тринадцать / Thirteen
08. Условия и положения / Terms and Conditions
09. Украденное пламя / Stealing Fire
10. Падший / Fallen
11. Никогда / Nevermore
12. Демоны / Demons
13. Присоединись или умри / Join or Die
14. Багряный рассвет / Red Sky at Morning
15. Неудачная реализация: Часть 1 / Perverse Instantiation: Part One
16. Неудачная реализация: Часть 2 / Perverse Instantiation: Part Two
-

MediaInfo

ОбщееУникальный идентификатор : 199652232780145126014274892597113642268 (0x96339F1149141DEAB4FB0DF01D8FDD1C)Полное имя : E:\Movies\The.100.S03E01.720p.BluRay.2xRus.Eng.HDCLUB.mkvФормат : MatroskaВерсия формата : Version 4 / Version 2Размер файла : 2,34 ГбайтПродолжительность : 42 м. 32 с.Общий поток : 7878 Кбит/секНазвание фильма : The 100 03x01 (Wanheda: Part One) - release by messafan for HDCLUBДата кодирования : UTC 2016-08-25 12:33:44Программа кодирования : mkvmerge v6.7.0 ('Back to the Ground') 64bit built on Jan 8 2014 15:10:52Библиотека кодирования : libebml v1.3.0 + libmatroska v1.4.1
ВидеоИдентификатор : 1Формат : AVCФормат/Информация : Advanced Video CodecПрофиль формата : High@L4.1Параметр CABAC формата : ДаПараметр ReFrames формата : 9 кадровИдентификатор кодека : V_MPEG4/ISO/AVCПродолжительность : 42 м. 32 с.Битрейт : 5801 Кбит/секШирина : 1280 пикселейВысота : 720 пикселейСоотношение сторон : 16:9Режим частоты кадров : ПостоянныйЧастота кадров : 23,976 (24000/1001) кадра/секЦветовое пространство : YUVСубдискретизация насыщенности : 4:2:0Битовая глубина : 8 битТип развёртки : ПрогрессивнаяБит/(Пиксели*Кадры) : 0.263Размер потока : 1,72 Гбайт (74%)Заголовок : The.100.S03E01.720p.BluRay.DD5.1.x264-DONБиблиотека кодирования : x264 core 148 r2705kMod 3f5ed56Настройки программы : cabac=1 / ref=9 / deblock=1:-3:-3 / analyse=0x3:0x113 / me=umh / subme=11 / psy=1 / fade_compensate=0.00 / psy_rd=1.00:0.00 / mixed_ref=1 / me_range=32 / chroma_me=1 / trellis=2 / 8x8dct=1 / cqm=0 / deadzone=21,11 / fast_pskip=0 / chroma_qp_offset=-3 / threads=12 / lookahead_threads=2 / sliced_threads=0 / nr=0 / decimate=1 / interlaced=0 / bluray_compat=0 / constrained_intra=0 / fgo=0 / bframes=9 / b_pyramid=2 / b_adapt=2 / b_bias=0 / direct=3 / weightb=1 / open_gop=0 / weightp=2 / keyint=230 / keyint_min=23 / scenecut=40 / intra_refresh=0 / rc_lookahead=40 / rc=crf / mbtree=0 / crf=17.5000 / qcomp=0.60 / qpmin=0 / qpmax=69 / qpstep=4 / vbv_maxrate=50000 / vbv_bufsize=62500 / crf_max=0.0 / nal_hrd=none / filler=0 / ip_ratio=1.40 / pb_ratio=1.30 / aq=3:0.80Язык : EnglishDefault : ДаForced : Нет
Аудио #1Идентификатор : 2Формат : AC-3Формат/Информация : Audio Coding 3Расширение режима : CM (complete main)Параметр Endianness формата : BigИдентификатор кодека : A_AC3Продолжительность : 42 м. 32 с.Вид битрейта : ПостоянныйБитрейт : 640 Кбит/секКаналы : 6 каналовРасположение каналов : Front: L C R, Side: L R, LFEЧастота : 48,0 КГцЧастота кадров : 31,250 кадров/сек (1536 spf)Метод сжатия : С потерямиРазмер потока : 195 Мбайт (8%)Заголовок : AlexFilm DD5.1 @ 640kbpsЯзык : RussianDefault : ДаForced : Нет
Аудио #2Идентификатор : 3Формат : AC-3Формат/Информация : Audio Coding 3Расширение режима : CM (complete main)Параметр Endianness формата : BigИдентификатор кодека : A_AC3Продолжительность : 42 м. 32 с.Вид битрейта : ПостоянныйБитрейт : 640 Кбит/секКаналы : 6 каналовРасположение каналов : Front: L C R, Side: L R, LFEЧастота : 48,0 КГцЧастота кадров : 31,250 кадров/сек (1536 spf)Метод сжатия : С потерямиРазмер потока : 195 Мбайт (8%)Заголовок : LostFilm DD5.1 @ 640kbpsЯзык : RussianDefault : НетForced : Нет
Аудио #3Идентификатор : 4Формат : AC-3Формат/Информация : Audio Coding 3Расширение режима : CM (complete main)Параметр Endianness формата : BigИдентификатор кодека : A_AC3Продолжительность : 42 м. 32 с.Вид битрейта : ПостоянныйБитрейт : 640 Кбит/секКаналы : 6 каналовРасположение каналов : Front: L C R, Side: L R, LFEЧастота : 48,0 КГцЧастота кадров : 31,250 кадров/сек (1536 spf)Метод сжатия : С потерямиРазмер потока : 195 Мбайт (8%)Заголовок : English DD5.1 @ 640kbpsЯзык : EnglishDefault : НетForced : Нет
Текст #1Идентификатор : 5Формат : UTF-8Идентификатор кодека : S_TEXT/UTF8Идентификатор кодека/Информация : UTF-8 Plain TextЗаголовок : Rus sub [AlexFilm]Язык : RussianDefault : НетForced : Нет
Текст #2Идентификатор : 6Формат : UTF-8Идентификатор кодека : S_TEXT/UTF8Идентификатор кодека/Информация : UTF-8 Plain TextЗаголовок : Eng subЯзык : EnglishDefault : НетForced : Нет
Текст #3Идентификатор : 7Формат : UTF-8Идентификатор кодека : S_TEXT/UTF8Идентификатор кодека/Информация : UTF-8 Plain TextЗаголовок : SDHЯзык : EnglishDefault : НетForced : Нет
Меню00:00:00.000 : en:00:00:00.00000:06:11.079 : en:00:06:11.07900:15:49.782 : en:00:15:49.78200:22:18.796 : en:00:22:18.79600:26:36.428 : en:00:26:36.42800:31:52.911 : en:00:31:52.91100:36:27.060 : en:00:36:27.06000:42:02.979 : en:00:42:02.979
-

Скриншоты

Вне форума [Профиль] [ЛС]
Показать сообщения:    
Ответить на тему

Текущее время: Сегодня 06:27

Часовой пояс: GMT + 3



Вы не можете начинать темы
Вы не можете отвечать на сообщения
Вы не можете редактировать свои сообщения
Вы не можете удалять свои сообщения
Вы не можете голосовать в опросах
Вы не можете прикреплять файлы к сообщениям
Вы не можете скачивать файлы