Today is a free download without charge Download

Девушка с татуировкой дракона / Man som hatar kvinnor / The Girl with the Dragon Tattoo (Нильс Арден Оплев) [2009, триллер, драма, криминал, детектив, BDRip] [Расширенная версия]

Reply to topic
 
Author
Message

Russian Mafia ®

Gender:

Longevity: 4 years 7 months

Posts: 337

Торрент-статистика

Post 15-Sep-2016 20:09

[Quote]

Девушка с татуировкой дракона / Man som hatar kvinnor / The Girl with the Dragon Tattoo (2009) BDRip [Расширенная версия]- Производство: Швеция, Дания, Германия, Норвегия / Danish Filminstitute, Danmarks Radio (DR), Film i Väst
Жанр: триллер, драма, криминал, детектив
Режиссер: Нильс Арден Оплев
Продюсер: Сёрен Стемосе, Сьюзанн Биллберг-Ридхольм, Анни Форби Фернандез
Актеры: Микаэл Нюквист, Нуми Рапас, Питер Абер, Свен-Бертиль Таубе, Петер Андерссон, Ингвар Хирдвалль, Марика Лагеркранц, Лена Эндре, Бьёрн Гранат, Эва Фрёлинг, Михалис Куцогианнакис, Анника Халлин, София Ледарп, Томас Колер, Давид Денсик, Гуннель Линдблум
Описание:
Фильм выполнен в духе классических детективов - Агаты Кристи и Артур Конан Дойля, но снят в стиле современных остросюжетных лент, которым присущи жестокость, эротика, кровь. Расследование главных героев, журналиста Микаэля Блумквиста и хакерши Лисбет Саландер, исчезновения юной племянницы промышленного магната, которое произошло более сорока лет назад, представляет собой захватывающую головоломку, следующий ход которой практически нельзя предугадать заранее. У вас не получится проникнуться какими-то чувствами к подозреваемым в этом деле, да оно и не важно, тут интересен сам ход расследования. А в расширенном варианте и с великолепным переводом Юрия Немахова фильм заиграет новыми красками!

Возраст: 18+ (зрителям, достигшим 18 лет. запрещено для детей)
Рейтинг MPAA: R (лицам до 17 лет обязательно присутствие взрослого)
Награды и номинации

Продолжительность: 03:06:01
Качество: BDRip Сэмпл
Перевод: Профессиональный (многоголосый закадровый) (Русский Репортаж, 100ТВ), Авторский (одноголосый, закадровый) (Юрий Немахов)
Вид субтитров: Внешние, отключаемые
Язык субтитров: Русский, Английский
Данные по 1 части:
Видео: XviD, 720x400, (16:9), 1790 kbps, 23,976 fps
Аудио 01: AC3, 6 ch, 448 kbps - Русский, (AVO, Юрий Немахов) в контейнере
Аудио 02: AC3, 2 ch, 192 kbps - Русский, (MVO, 100ТВ) отдельно
Аудио 03: AC3, 6 ch, 448 kbps - Шведский, отдельно
Данные по 2 части:
Видео: XviD, 720x400, (16:9), 1792 kbps, 23,976 fps
Аудио 01: AC3, 6 ch, 448 kbps - Русский, (AVO, Юрий Немахов) в контейнере
Аудио 02: AC3, 2 ch, 192 kbps - Русский, (MVO, 100ТВ) отдельно
Аудио 03: AC3, 6 ch, 448 kbps - Шведский, отдельно

Дополнительная информация:

Код:
Общее
Полное имя : B:\Män.som.hatar.kvinnor.2009.Extended.BDRip-ylnian\1.avi
Формат : AVI
Формат/Информация : Audio Video Interleave
Размер файла : 1,46 Гбайт
Продолжительность : 1 ч. 33 м.
Общий поток : 2247 Кбит/сек
Программа кодирования : VirtualDubMod 1.5.10.2 (build 2540/release)
Библиотека кодирования : VirtualDubMod build 2540/release
Видео
Идентификатор : 0
Формат : MPEG-4 Visual
Профиль формата : Advanced Simple@L5
Параметр BVOP формата : 1
Параметр QPel формата : Нет
Параметр GMC формата : Без точки перехода
Параметр матрицы формата : Default (MPEG)
Идентификатор кодека : XVID
Идентификатор кодека/Подсказка : XviD
Продолжительность : 1 ч. 33 м.
Битрейт : 1790 Кбит/сек
Ширина : 720 пикселей
Высота : 400 пикселей
Соотношение сторон : 16:9
Частота кадров : 23,976 (24000/1001) кадра/сек
Цветовое пространство : YUV
Субдискретизация насыщенности : 4:2:0
Битовая глубина : 8 бит
Тип развёртки : Прогрессивная
Метод сжатия : С потерями
Бит/(Пиксели*Кадры) : 0.259
Размер потока : 1,16 Гбайт (80%)
Библиотека кодирования : XviD 67
Аудио
Идентификатор : 1
Формат : AC-3
Формат/Информация : Audio Coding 3
Расширение режима : CM (complete main)
Параметр Endianness формата : Big
Идентификатор кодека : 2000
Продолжительность : 1 ч. 33 м.
Вид битрейта : Постоянный
Битрейт : 448 Кбит/сек
Каналы : 6 каналов
Расположение каналов : Front: L C R, Side: L R, LFE
Частота : 48,0 КГц
Частота кадров : 31,250 кадров/сек (1536 spf)
Метод сжатия : С потерями
Размер потока : 298 Мбайт (20%)
Выравнивание : Разделение по промежуткам
Продолжительность промежутка : 42 мс. (1,00 видеокадр)
Время предзагрузки промежутка : 500 мс.
Заголовок : RUS - AVO - Nemahov
Общее
Полное имя : B:\Män.som.hatar.kvinnor.2009.Extended.BDRip-ylnian\1_eng.srt
Размер файла : 55,2 Кбайт
Общее
Полное имя : B:\Män.som.hatar.kvinnor.2009.Extended.BDRip-ylnian\1_mvo_100TV.ac3
Формат : AC-3
Формат/Информация : Audio Coding 3
Размер файла : 128 Мбайт
Продолжительность : 1 ч. 33 м.
Режим общего битрейта : Постоянный
Общий поток : 192 Кбит/сек
Аудио
Формат : AC-3
Формат/Информация : Audio Coding 3
Расширение режима : CM (complete main)
Параметр Endianness формата : Big
Продолжительность : 1 ч. 33 м.
Вид битрейта : Постоянный
Битрейт : 192 Кбит/сек
Каналы : 2 канала
Расположение каналов : Front: L R
Частота : 48,0 КГц
Частота кадров : 31,250 кадров/сек (1536 spf)
Метод сжатия : С потерями
Размер потока : 128 Мбайт (100%)
Общее
Полное имя : B:\Män.som.hatar.kvinnor.2009.Extended.BDRip-ylnian\1_rus.srt
Формат : SubRip
Размер файла : 83,5 Кбайт
Текст
Формат : SubRip
Метод сжатия : Без потерь
Общее
Полное имя : B:\Män.som.hatar.kvinnor.2009.Extended.BDRip-ylnian\1_swe.ac3
Формат : AC-3
Формат/Информация : Audio Coding 3
Размер файла : 298 Мбайт
Продолжительность : 1 ч. 33 м.
Режим общего битрейта : Постоянный
Общий поток : 448 Кбит/сек
Аудио
Формат : AC-3
Формат/Информация : Audio Coding 3
Расширение режима : CM (complete main)
Параметр Endianness формата : Big
Продолжительность : 1 ч. 33 м.
Вид битрейта : Постоянный
Битрейт : 448 Кбит/сек
Каналы : 6 каналов
Расположение каналов : Front: L C R, Side: L R, LFE
Частота : 48,0 КГц
Частота кадров : 31,250 кадров/сек (1536 spf)
Метод сжатия : С потерями
Размер потока : 298 Мбайт (100%)
Общее
Полное имя : B:\Män.som.hatar.kvinnor.2009.Extended.BDRip-ylnian\2.avi
Формат : AVI
Формат/Информация : Audio Video Interleave
Размер файла : 1,46 Гбайт
Продолжительность : 1 ч. 33 м.
Общий поток : 2249 Кбит/сек
Программа кодирования : VirtualDubMod 1.5.10.2 (build 2540/release)
Библиотека кодирования : VirtualDubMod build 2540/release
Видео
Идентификатор : 0
Формат : MPEG-4 Visual
Профиль формата : Advanced Simple@L5
Параметр BVOP формата : 1
Параметр QPel формата : Нет
Параметр GMC формата : Без точки перехода
Параметр матрицы формата : Default (MPEG)
Идентификатор кодека : XVID
Идентификатор кодека/Подсказка : XviD
Продолжительность : 1 ч. 33 м.
Битрейт : 1792 Кбит/сек
Ширина : 720 пикселей
Высота : 400 пикселей
Соотношение сторон : 16:9
Частота кадров : 23,976 (24000/1001) кадра/сек
Цветовое пространство : YUV
Субдискретизация насыщенности : 4:2:0
Битовая глубина : 8 бит
Тип развёртки : Прогрессивная
Метод сжатия : С потерями
Бит/(Пиксели*Кадры) : 0.259
Размер потока : 1,16 Гбайт (80%)
Библиотека кодирования : XviD 67
Аудио
Идентификатор : 1
Формат : AC-3
Формат/Информация : Audio Coding 3
Расширение режима : CM (complete main)
Параметр Endianness формата : Big
Идентификатор кодека : 2000
Продолжительность : 1 ч. 33 м.
Вид битрейта : Постоянный
Битрейт : 448 Кбит/сек
Каналы : 6 каналов
Расположение каналов : Front: L C R, Side: L R, LFE
Частота : 48,0 КГц
Частота кадров : 31,250 кадров/сек (1536 spf)
Метод сжатия : С потерями
Размер потока : 298 Мбайт (20%)
Выравнивание : Разделение по промежуткам
Продолжительность промежутка : 42 мс. (1,00 видеокадр)
Время предзагрузки промежутка : 500 мс.
Заголовок : RUS - AVO - Nemahov
Общее
Полное имя : B:\Män.som.hatar.kvinnor.2009.Extended.BDRip-ylnian\2_eng.srt
Формат : SubRip
Размер файла : 51,4 Кбайт
Текст
Формат : SubRip
Метод сжатия : Без потерь
Общее
Полное имя : B:\Män.som.hatar.kvinnor.2009.Extended.BDRip-ylnian\2_mvo_100TV.ac3
Формат : AC-3
Формат/Информация : Audio Coding 3
Размер файла : 128 Мбайт
Продолжительность : 1 ч. 33 м.
Режим общего битрейта : Постоянный
Общий поток : 192 Кбит/сек
Аудио
Формат : AC-3
Формат/Информация : Audio Coding 3
Расширение режима : CM (complete main)
Параметр Endianness формата : Big
Продолжительность : 1 ч. 33 м.
Вид битрейта : Постоянный
Битрейт : 192 Кбит/сек
Каналы : 2 канала
Расположение каналов : Front: L R
Частота : 48,0 КГц
Частота кадров : 31,250 кадров/сек (1536 spf)
Метод сжатия : С потерями
Размер потока : 128 Мбайт (100%)
Общее
Полное имя : B:\Män.som.hatar.kvinnor.2009.Extended.BDRip-ylnian\2_rus.srt
Формат : SubRip
Размер файла : 75,9 Кбайт
Текст
Формат : SubRip
Метод сжатия : Без потерь
Общее
Полное имя : B:\Män.som.hatar.kvinnor.2009.Extended.BDRip-ylnian\2_swe.ac3
Формат : AC-3
Формат/Информация : Audio Coding 3
Размер файла : 298 Мбайт
Продолжительность : 1 ч. 33 м.
Режим общего битрейта : Постоянный
Общий поток : 448 Кбит/сек
Аудио
Формат : AC-3
Формат/Информация : Audio Coding 3
Расширение режима : CM (complete main)
Параметр Endianness формата : Big
Продолжительность : 1 ч. 33 м.
Вид битрейта : Постоянный
Битрейт : 448 Кбит/сек
Каналы : 6 каналов
Расположение каналов : Front: L C R, Side: L R, LFE
Частота : 48,0 КГц
Частота кадров : 31,250 кадров/сек (1536 spf)
Метод сжатия : С потерями
Размер потока : 298 Мбайт (100%)

Скриншоты

       
Other forum [Profile] [PM]
Similar theme
Forum Topic Author Torrent Replies Last Post
./templates/default/images/folder_dl.gif Новинки (BD|HDTV|DVD) Девушки бывают разные (Сарик Андреасян) [2019, комедия, WEB-DL 1080p] [iTunes] Орлов Владимир
1 | 0

0 | 396

0

2019-11-21 06:58
Орлов Владимир Latest
Display posts from previous:    
Reply to topic

The time now is: Today 00:50

All times are GMT + 3 Hours



You cannot post new topics in this forum
You cannot reply to topics in this forum
You cannot edit your posts in this forum
You cannot delete your posts in this forum
You cannot vote in polls in this forum
You cannot attach files in this forum
You cannot download files in this forum