Сегодня идет свободное скачивание без начисления Download

Ми-ми-мишки (2015-2016) WEB-DLRip [H.264/720p-LQ] (серии 01-54) [Обновляемая]

Ответить на тему
 
Автор
Сообщение

Varius ®

Пол:

Стаж: 7 лет 5 месяцев

Сообщений: 3306

Откуда: Hell

Торрент-статистика

Пост 13-Сен-2016 19:55

[Цитировать]

Ми-ми-мишки (2015-2016) WEB-DLRip (серии 01-54)- Год выпуска: 2015-2016
Жанр: Детский, Компьютерная анимация
Производство: Россия (Анимационная Студия "Паровоз")
Режиссер: Алексей Миронов, Артур Толстобров
Персонажи: Полина Кутепова, Наталия Медведева, Дарья Мазанова
Описание:
Анимационный сериал о приключениях двух друзей — бурого медведя Иннокентия и белого медведя по имени Белая Тучка. Иннокентий любит гаджеты и технику, а Белая Тучка — дитя природы. Основной конфликт сюжета — поиск правильного баланса между прогрессом и любовью к природе. Давным-давно Белая Тучка приехал в гости и поселился в своем доме недалеко от дома Иннокентия. Сериал может помочь людям увидеть, что можно жить в гармонии с природой и при этом быть развитым, увлеченным, любящим науку и технику. Ну и что дружба преодолевает любые препятствия.

Продолжительность: серия по 00:05:30
Качество видео: WEB-DLRip
Перевод: Не требуется
Субтитры: Отсутствуют
Видео: AVC/H.264, 1280x720, ~2000 kbps
Аудио: Русский: AС3, 2 ch, 192 kbps

MediaInfo

Код:
General
Unique ID                   : 325256486158177297052395077596564487404 (0xF4B21EE1988E76B23D1DC9F162E0FCEC)
Complete name               : C:\009_Домовой.mkv
Format                      : Matroska
Format version              : Version 4 / Version 2
File size                   : 74.6 MiB
Duration                    : 5mn 30s
Overall bit rate            : 1 894 Kbps
Writing application         : Lavf56.36.100
Writing library             : Lavf56.36.100 / Lavf56.36.100
Video
ID                          : 1
Format                      : AVC
Format/Info                 : Advanced Video Codec
Format profile              : [url=mailto:High@L3.1]High@L3.1[/url]
Format settings, CABAC      : Yes
Format settings, ReFrames   : 4 frames
Codec ID                    : V_MPEG4/ISO/AVC
Duration                    : 5mn 30s
Bit rate                    : 1 665 Kbps
Width                       : 1 280 pixels
Height                      : 720 pixels
Display aspect ratio        : 16:9
Frame rate mode             : Constant
Frame rate                  : 25.000 fps
Color space                 : YUV
Chroma subsampling          : 4:2:0
Bit depth                   : 8 bits
Scan type                   : Progressive
Bits/(Pixel*Frame)          : 0.072
Stream size                 : 65.5 MiB (88%)
Writing library             : x264 core 146 r2538 121396c
Encoding settings           : cabac=1 / ref=3 / deblock=1:0:0 / analyse=0x3:0x133 / me=hex / subme=7 / psy=1 / psy_rd=1.00:0.00 / mixed_ref=1 / me_range=16 / chroma_me=1 / trellis=1 / 8x8dct=1 / cqm=0 / deadzone=21,11 / fast_pskip=1 / chroma_qp_offset=-2 / threads=3 / lookahead_threads=1 / sliced_threads=0 / nr=0 / decimate=1 / interlaced=0 / bluray_compat=0 / constrained_intra=0 / bframes=3 / b_pyramid=2 / b_adapt=1 / b_bias=0 / direct=1 / weightb=1 / open_gop=0 / weightp=2 / keyint=250 / keyint_min=25 / scenecut=40 / intra_refresh=0 / rc_lookahead=40 / rc=crf / mbtree=1 / crf=20.0 / qcomp=0.60 / qpmin=10 / qpmax=51 / qpstep=4 / ip_ratio=1.40 / aq=1:1.00
Default                     : Yes
Forced                      : No
Audio
ID                          : 2
Format                      : AC-3
Format/Info                 : Audio Coding 3
Mode extension              : CM (complete main)
Format settings, Endianness : Big
Codec ID                    : A_AC3
Duration                    : 5mn 30s
Bit rate mode               : Constant
Bit rate                    : 192 Kbps
Channel(s)                  : 2 channels
Channel positions           : Front: L R
Sampling rate               : 44.1 KHz
Frame rate                  : 28.711 fps (1536 spf)
Compression mode            : Lossy
Stream size                 : 7.56 MiB (10%)
Language                    : unknown
Default                     : Yes
Forced                      : No

Факты:

В серии «Нежданные гости» Кеша, Тучка, Лисичка и Цыпа хотели посмотреть мультсериал [url=/forum/viewtopic.php?t=1044319]«Бумажки»[/url], который есть на самом деле. Также в некоторых сериях есть фотография Аристотеля и Тюк-Тюка из [url=/forum/viewtopic.php?t=1044319]«Бумажек»[/url]. И ещё в серии «Нежданные гости» на платье Лисички была нарисована сойка Аглая из [url=/forum/viewtopic.php?t=1044319]«Бумажек»[/url].

Список серий

001. Звездная история
002. Грибы и листья
003. Фотоохота
004. Путешествие
005. Лучшая напоминалка
006. Несовременная еда
007. Борьба за урожай
008. Как лечить деревья
009. Домовой
010. Бессонница
011. Глобальное потепление
012. Огородники
013. Медовая история
014. Прогноз погоды
015. Змей на дереве
016. Финишная прямая
017. Пиратская история
018. Путешествие к звездам
019. Победители дракона
020. Экспедиция на север
021. Больше не надо
022. Лучшее место в мире
023. Цыпа и динозавры
024. Фокусы с разоблачением
025. Настоящий ниндзя
026. Нежданные гости
027. Необитаемый остров
028. Гол
029. Мишка-невидимка
030. Следствие ведут мишки
031. По своим правилам
032. Тучкина высота
033. Пещера, полная ловушек
034. Супермишки
035. В поход
036. Песня для Лисички
037. Умный дом
038. Новогодний маскарад
039. Неуловимый Джо
040. Сказка про репку
041. Мысли вслух
042. Маленькое приключение
043. Парк развлечений
044. Жемчужина севера
045. Зубная фея
046. Лучший друг Лисички
047. Богатый улов
.
049. Мой друг велосипед
050. Мишки в цирке
051. Баллада о рыцарях
052. Поиграем завтра
053. Кеша FM
054. Идеальные друзья
.
.
057. День рождения Лисички
Скриншоты:
       

_________________

Создавая "Новую папку", не считайте себя Создателем - это право Вам дано Админом


Вне форума [Профиль] [ЛС]
Показать сообщения:    
Ответить на тему

Текущее время: Сегодня 12:41

Часовой пояс: GMT + 3



Вы не можете начинать темы
Вы не можете отвечать на сообщения
Вы не можете редактировать свои сообщения
Вы не можете удалять свои сообщения
Вы не можете голосовать в опросах
Вы не можете прикреплять файлы к сообщениям
Вы не можете скачивать файлы