Сегодня идет свободное скачивание без начисления Download

Тайны Смолвиля / Smallville / Сезон 10 / Серия 1 (22) (Альфред Гоф, Майлз Миллар) [2010-2011, фантастика, драма, HDRip] DVO (Sony Sci-Fi) + Original

Ответить на тему
 
Автор
Сообщение

Omen ®

Стаж: 5 лет 11 месяцев

Сообщений: 184329

Торрент-статистика

Пост 13-Сен-2016 01:01

[Цитировать]

-Тайны Смолвиля / SmallvilleСезон 10, Серия 1-- Год выпуска: 2010-2011
Страна: США, Канада
Жанр: Фантастика, Приключения, Молодежная драма
Продолжительность: ~ 00:43:00 x 1
Перевод: профессиональный закадровый (Sony Sci-Fi)
Субтитры:-Режиссёры: Альфред Гоф / Alfred Gough, Майлз Миллар / Miles Millar
В ролях: Том Уэллинг / Tom Welling, Эрика Дюранс / Erica Durance, Кэссиди Фриман / Cassidy Freeman, Джастин Хартли / Justin Hartley, Эллисон Мэк / Allison Mack-Описание: Здесь начинается начало конца. Вступая в свой десятый и заключительный сезон, эта современная интерпретация легендарного происхождения героя продолжает смешивать реализм, действие, романтику и юмор в то время, как Кларк Кент стремится к своему предназначению.
Кларк вышел из своего самого темного часа, чтобы найти путь к своей судьбе, заслоненный призраками прошлого - тени настоящего пытаются заманить Кларка назад в темноту на каждом шагу. Несмотря на непреодолимые разногласия, достаточно ли силен Кларк, чтобы выбрать свет и занять свое законное место самого могущественного защитника Земли?-Рип: 12kiril & ЛП
Работа со звуком: Tom Soyer
Работа с субтитрами: Swan (перевод), Tom Soyer (корректировка тайминга)-Сэмпл: http://multi-up.com/1117833-Качество: HDRip
Формат: AVI
Видео кодек: XviD
Аудио кодек: AC3
Видео: 720x400, 23.976 fps, ~ 2Mbit/s, 0.290 bit/pixel
Аудио 1: AC3, 48 KHz. 16 bit, 2 ch, 192 kbps [Русский, Sony Sci-Fi]
Аудио 2: AC3, 48 KHz, 16 bit, 2 ch, 192 kbps [Английский]-

MI

General
Complete name : smallville.s10e01.Lazarus.hdrip.rus.dvo.eng.avi
Format : AVI
Format/Info : Audio Video Interleave
File size : 727 MiB
Duration : 42 min
Overall bit rate : 2 398 kb/s
Writing application : VirtualDubMod 1.5.10.2 (build 2540/release)
Writing library : VirtualDubMod build 2540/release
Video
ID : 0
Format : MPEG-4 Visual
Format profile : Advanced Simple@L5
Format settings, BVOP : 1
Format settings, QPel : No
Format settings, GMC : No warppoints
Format settings, Matrix : Default (MPEG)
Codec ID : XVID
Codec ID/Hint : XviD
Duration : 42 min
Bit rate : 2 000 kb/s
Width : 720 pixels
Height : 400 pixels
Display aspect ratio : 16:9
Frame rate : 23.976 (23976/1000) FPS
Color space : YUV
Chroma subsampling : 4:2:0
Bit depth : 8 bits
Scan type : Progressive
Compression mode : Lossy
Bits/(Pixel*Frame) : 0.290
Stream size : 606 MiB (83%)
Writing library : XviD 64
Audio #1
ID : 1
Format : AC-3
Format/Info : Audio Coding 3
Mode extension : CM (complete main)
Format settings, Endianness : Big
Codec ID : 2000
Duration : 42 min
Bit rate mode : Constant
Bit rate : 192 kb/s
Channel(s) : 2 channels
Channel positions : Front: L R
Sampling rate : 48.0 kHz
Frame rate : 31.250 FPS (1536 spf)
Compression mode : Lossy
Stream size : 58.2 MiB (8%)
Alignment : Split accross interleaves
Interleave, duration : 42 ms (1.00 video frame)
Interleave, preload duration : 500 ms
Audio #2
ID : 2
Format : AC-3
Format/Info : Audio Coding 3
Mode extension : CM (complete main)
Format settings, Endianness : Big
Codec ID : 2000
Duration : 42 min
Bit rate mode : Constant
Bit rate : 192 kb/s
Channel(s) : 2 channels
Channel positions : Front: L R
Sampling rate : 48.0 kHz
Frame rate : 31.250 FPS (1536 spf)
Compression mode : Lossy
Stream size : 58.2 MiB (8%)
Alignment : Split accross interleaves
Interleave, duration : 42 ms (1.00 video frame)
Interleave, preload duration : 500 ms
-
-

Внимание! Раздача ведётся путём добавления новых серий

Внимание! Раздача ведётся путём добавления новых серий; при каждом добавлении создётся новый торрент. Чтобы начать докачку новой серии, пользователям необходимо сделать следующее:
  • Остановить скачивание.
  • Удалить старый торрент у себя из клиента (старые серии удалять не надо).
  • Скачать новый торрент и запустить его у себя в клиенте вместо старого, при этом указать клиенту путь в старую папку куда и должно происходить скачивание новых серий.
    Ваш клиент при этом должен произвести хеширование (проверку) старой папки (если не производит сам - помогите ему сделать это), и будет докачивать только те серии которых у вас ещё нет. Старые серии при этом не удаляются, а продолжают раздаваться!
    Eсли вы уже удалили старые серии, то предотвратить повторную закачку старых серий можно, отжав галочку в соответсвующих местах при запуске нового торрента. По возможности, желательно не удалять старые серии как можно дольше чтобы релизёр не столько продолжал раздавать старые серии, а смог сконцентрироваться на новых.
--
Вне форума [Профиль] [ЛС]
Похожие темы
Форум Тема Автор Торрент Отв. Посл. сообщение
./templates/default/images/folder_dl.gif Приключения и квесты Secrets of the Dark: The Flower of Shadow Collector\'s Edition / Тайны Тьмы: Цветок Теней. Коллекционное издание [P] [RUS / ENG] (2014) Omen
4 | 0

0 | 1456

20

2015-06-11 12:04
Omen Последнее
Показать сообщения:    
Ответить на тему

Текущее время: Сегодня 02:07

Часовой пояс: GMT + 3



Вы не можете начинать темы
Вы не можете отвечать на сообщения
Вы не можете редактировать свои сообщения
Вы не можете удалять свои сообщения
Вы не можете голосовать в опросах
Вы не можете прикреплять файлы к сообщениям
Вы не можете скачивать файлы