Сегодня идет свободное скачивание без начисления Download

Очень странные дела / Загадочные события / Крайне странные события / Stranger Things / Сезон: 1 / Серии: 1-8 из 8 (Мэтт Даффер, Росс Даффер, Шон Леви) [2016, триллер, драма, ужасы, WEBRip] MVO (LostFilm)

Ответить на тему
 
Автор
Сообщение

Omen ®

Стаж: 5 лет 11 месяцев

Сообщений: 184329

Торрент-статистика

Пост 13-Сен-2016 01:01

[Цитировать]

-Stranger Things
Очень странные дела / Загадочные события / Крайне странные события
-- Год выпуска: 2016
Страна: США
Жанр: Триллер, драма, ужасы
Продолжительность: ~45 мин.
Серии: 1 - 8 [1-й Сезон - полностью]
Перевод: Профессиональный (многоголосый закадровый) - [LostFilm]
Режиссёр: Мэтт Даффер, Росс Даффер, Шон Леви
В ролях: Вайнона Райдер, Дэвид Харбор, Финн Вулфард, Милли Бобби Браун, Гейтен Матараццо, Калеб МакЛафлин, Ной Шнапп, Наталия Дайер, Чарли Хитон, Мэттью Модайн и т.д
Описание: Главное действие нового телевизионного сериала разворачивается в 80-х годах на территории тихого провинциального города. Благоприятное течение местной жизни нарушает загадочное исчезновение подростка по имени Уилл. Выяснить обстоятельства дела, полны решимости родные мальчика и местный шериф. Также события затрагивают лучшего друга Уилла – Майка. Он начинает собственное расследование. Теперь Майк уверен, что близок к разгадке, однако для этого ему предстоит оказаться в эпицентре ожесточенной битвы потусторонних сил.
Качество: WEBRip
Формат: MP4
Видео: H.264 (AVC) [High 4.1], 1280x720 (16:9) [720p], 23.976 fps - 4000 kbps
Аудио: AAC (LC), 48.0 KHz, 2 channels, ~280 kbps - (RUS MVO) - [LostFilm]
Субтитры: отсутствуют-| Сэмпл | КиноПоиск | IMDB | [url=viewtopic.php?t=5281432]1080p (LostFilm)[/url]-

MediaInfo

Формат : MPEG-4
Профиль формата : Base Media
Идентификатор кодека : isom
Размер файла : 1,42 Гбайт
Продолжительность : 47 м.
Режим общего битрейта : Переменный
Общий поток : 4264 Кбит/сек
Название фильма : Часть первая. Исчезновение Уилла Байерса
Альбом : Загадочные события, Сезон 1
Альбом/Исполнитель : Загадочные события
Часть/Положение : 1
Трек/Положение : 1
Исполнитель : Загадочные события
Жанр : Sci-Fi & Fantasy
Дата записи : 2016
Дата кодирования : UTC 2016-07-18 11:47:30
Дата пометки : UTC 2016-07-18 11:47:30
Программа кодирования : LostCoder
Правообладатель : LostFilm.TV (c)
Обложка : Yes
Примечание : В маленьком провинциальном Хоукинсе никогда не случалось ничего экстраординарного, жизнь текла своим чередом. Но когда при очень странных обстоятельствах пропал один из обитателей этого райского местечка, никто, кроме его мамы, всерьез не обеспокоился.
tven : 101
tvsn : 1
tves : 1
stik : 10
tvsh : Загадочные события
Видео
Идентификатор : 1
Формат : AVC
Формат/Информация : Advanced Video Codec
Профиль формата : High@L4.1
Параметр CABAC формата : Нет
Параметр ReFrames формата : 4 кадра
Идентификатор кодека : avc1
Идентификатор кодека/Информация : Advanced Video Coding
Продолжительность : 47 м.
Битрейт : 4000 Кбит/сек
Максимальный битрейт : 6122 Кбит/сек
Ширина : 1280 пикселей
Высота : 720 пикселей
Соотношение сторон : 16:9
Режим частоты кадров : Постоянный
Частота кадров : 23,976 кадра/сек
Цветовое пространство : YUV
Субдискретизация насыщенности : 4:2:0
Битовая глубина : 8 бит
Тип развёртки : Прогрессивная
Бит/(Пиксели*Кадры) : 0.181
Размер потока : 1,33 Гбайт (93%)
Заголовок : Imported with GPAC 0.4.6-DEV (internal rev. 5)
Библиотека кодирования : x264 core 112 r1834 a51816a
Настройки программы : cabac=0 / ref=3 / deblock=1:0:0 / analyse=0x3:0x113 / me=hex / subme=7 / psy=1 / psy_rd=1.00:0.00 / mixed_ref=1 / me_range=16 / chroma_me=1 / trellis=1 / 8x8dct=1 / cqm=0 / deadzone=21,11 / fast_pskip=1 / chroma_qp_offset=-2 / threads=12 / sliced_threads=0 / nr=0 / decimate=1 / interlaced=0 / constrained_intra=0 / bframes=4 / b_pyramid=2 / b_adapt=1 / b_bias=0 / direct=1 / weightb=1 / open_gop=0 / weightp=2 / keyint=250 / keyint_min=25 / scenecut=40 / intra_refresh=0 / rc_lookahead=40 / rc=2pass / mbtree=1 / bitrate=4000 / ratetol=1.0 / qcomp=0.60 / qpmin=0 / qpmax=51 / qpstep=4 / cplxblur=20.0 / qblur=0.5 / vbv_maxrate=5000 / vbv_bufsize=2000 / ip_ratio=1.40 / aq=1:1.00 / nal_hrd=none
Дата кодирования : UTC 2016-07-18 11:44:36
Дата пометки : UTC 2016-07-18 11:47:40
Аудио
Идентификатор : 2
Формат : AAC
Формат/Информация : Advanced Audio Codec
Профиль формата : LC
Идентификатор кодека : 40
Продолжительность : 47 м.
Вид битрейта : Переменный
Битрейт : 277 Кбит/сек
Максимальный битрейт : 344 Кбит/сек
Каналы : 2 канала
Расположение каналов : Front: L R
Частота : 48,0 КГц
Метод сжатия : С потерями
Размер потока : 94,3 Мбайт (6%)
Дата кодирования : UTC 2016-07-18 11:47:34
Дата пометки : UTC 2016-07-18 11:47:40

Список серий

Эпизод 1:
-Chapter One: The Vanishing of Will Byers
Эпизод 2:
-Chapter Two: The Weirdo on Maple Street
Эпизод 3:
-Chapter Three: Holly, Jolly
Эпизод 4:
-Chapter Four: The Body
Эпизод 5:
-Chapter Five: The Flea and the Acrobat
Эпизод 6:
-Chapter Six: The Monster
Эпизод 7:
-Chapter Seven: The Bathtub
Эпизод 8:
-Chapter Eight: The Upside Down

Скриншоты

Вне форума [Профиль] [ЛС]
Показать сообщения:    
Ответить на тему

Текущее время: Сегодня 20:57

Часовой пояс: GMT + 3



Вы не можете начинать темы
Вы не можете отвечать на сообщения
Вы не можете редактировать свои сообщения
Вы не можете удалять свои сообщения
Вы не можете голосовать в опросах
Вы не можете прикреплять файлы к сообщениям
Вы не можете скачивать файлы