Сегодня идет свободное скачивание без начисления Download

Мастера Секса / Masters of Sex / Сезон: 4 / Серии: 1 из 12 (Майкл Эптед, Майкл Диннер, Дженнифер Гетцингер) [2016, США, Драма, экранизация, WEBRip] MVO (Amedia) + Original + Subs (Rus, Eng)

Ответить на тему
 
Автор
Сообщение

Omen ®

Стаж: 5 лет 10 месяцев

Сообщений: 184329

Торрент-статистика

Пост 13-Сен-2016 01:01

[Цитировать]

-Мастера Секса | Masters of Sex-- • Год выпуска: 2016
• Страна: США
• Жанр: Драма, экранизация
• Продолжительность: ~ 00:59:00-• Перевод: Профессиональный (многоголосый закадровый) | Amedia-• Режиссёр: Майкл Эптед, Майкл Диннер, Дженнифер Гетцингер, Фил Абрахам-• В ролях: Майкл Шин, Лиззи Каплан, Николас Д`Агосто, Кэйтлин Фицджералд, Тедди Сирс, Хелен Йорк, Кайла Мэдисон, Билл Лэйн, Коул Сэнд, Кристофер Клауси-• Описание: Сериал Мастера секса является экранизацией книги Томаса Майера с претенциозным названием «Мастера секса: Жизнь и время Уильяма Мастерса и Вирджинии Джонсон, пары, которая учила Америку любить». Это история жизни людей, которые проводят постоянные исследования человеческой сексуальности и попробуют их на себе. Это сериал об отношениях между Уильямом (Майкл Шин) и Вирджинией (Лиззи Каплан), которые были первопроходцами в этой теме. Исследователи – сексологи решают выяснить, что в мире может доставить невероятное удовольствие, и что при этом происходит в головном мозге, при достижении этого самого удовольствия. Действие сериала происходит в Америке в 60-е годы прошлого столетия.-
--• Качество: WEBRip
• Формат: AVI
• Видео: XviD, 720x400 (16:9), 23,976 fps, ~1250 kbps
• Аудио #1: MP3, 48 kHz, 2 ch, 128 kbps, CBR - Rus
• Аудио #2: MP3, 48 kHz, 2 ch, 128 kbps, CBR - Eng
• Субтитры: Русские (амедиа) | Английские-

✘ Релиз ✘

рип, работа со звуком, синхронизация субтитров - qqss44

✘ MediaInfo ✘

Код:
Общее
Полное имя                               : X:\ATorrent\Masters of Sex (Season 04)\Masters.of.Sex.[S04E01].XviD.Amedia.[qqss44].avi
Формат                                   : AVI
Формат/Информация                        : Audio Video Interleave
Размер файла                             : 601 Мбайт
Продолжительность                        : 55 м.
Общий поток                              : 1513 Кбит/сек
Программа кодирования                    : VirtualDubMod 1.5.10.3 | www.virtualdub-fr.org || (build 2550/release)
Библиотека кодирования                   : VirtualDubMod build 2550/release
Видео
Идентификатор                            : 0
Формат                                   : MPEG-4 Visual
Профиль формата                          : Advanced Simple@L5
Параметр BVOP формата                    : 2
Параметр QPel формата                    : Нет
Параметр GMC формата                     : Без точки перехода
Параметр матрицы формата                 : Выборочная
Идентификатор кодека                     : XVID
Идентификатор кодека/Подсказка           : XviD
Продолжительность                        : 55 м.
Битрейт                                  : 1243 Кбит/сек
Ширина                                   : 720 пикселей
Высота                                   : 400 пикселей
Соотношение сторон                       : 16:9
Частота кадров                           : 25,000 кадров/сек
Цветовое пространство                    : YUV
Субдискретизация насыщенности            : 4:2:0
Битовая глубина                          : 8 бит
Тип развёртки                            : Прогрессивная
Метод сжатия                             : С потерями
Бит/(Пиксели*Кадры)                      : 0.173
Размер потока                            : 494 Мбайт (82%)
Библиотека кодирования                   : XviD 73
Аудио #1
Идентификатор                            : 1
Формат                                   : MPEG Audio
Версия формата                           : Version 1
Профиль формата                          : Layer 3
Режим                                    : Joint stereo
Расширение режима                        : MS Stereo
Идентификатор кодека                     : 55
Идентификатор кодека/Подсказка           : MP3
Продолжительность                        : 55 м.
Вид битрейта                             : Постоянный
Битрейт                                  : 128 Кбит/сек
Каналы                                   : 2 канала
Частота                                  : 48,0 КГц
Метод сжатия                             : С потерями
Размер потока                            : 50,9 Мбайт (8%)
Выравнивание                             : Соединение по промежуткам
Продолжительность промежутка             : 40  мс. (1,00 видеокадр)
Время предзагрузки промежутка            : 504  мс.
Аудио #2
Идентификатор                            : 2
Формат                                   : MPEG Audio
Версия формата                           : Version 1
Профиль формата                          : Layer 3
Режим                                    : Joint stereo
Расширение режима                        : MS Stereo
Идентификатор кодека                     : 55
Идентификатор кодека/Подсказка           : MP3
Продолжительность                        : 55 м.
Вид битрейта                             : Постоянный
Битрейт                                  : 128 Кбит/сек
Каналы                                   : 2 канала
Частота                                  : 48,0 КГц
Метод сжатия                             : С потерями
Размер потока                            : 50,9 Мбайт (8%)
Выравнивание                             : Соединение по промежуткам
Продолжительность промежутка             : 40  мс. (1,00 видеокадр)
Время предзагрузки промежутка            : 504  мс.

✘ Скриншоты ✘

✘ Раздача ведется путем добавления новых серий ✘

Когда раздача ведётся путём добавления новых серий, при каждом добавлении создётся новый торрент. Чтобы начать докачку новой серии, пользователям необходимо сделать следующее:
(1) остановить скачивание,
(2) удалить старый торрент у себя из клиента (старые серии удалять не надо),
(3) скачать новый торрент и запустить его у себя в клиенте вместо старого, при этом указать клиенту путь в старую папку, куда и должно происходить скачивание новых серий.
Ваш клиент при этом должен произвести хеширование (проверку) старой папки (если не производит сам - помогите ему сделать это), и будет докачивать только те серии, которых у вас ещё нет. Старые серии при этом не удаляются, а продолжают раздаваться!
Eсли вы уже удалили старые серии, то предотвратить повторную закачку старых серий можно, отжав галочку в соответсвующих местах при запуске нового торрента. По возможности, желательно не удалять старые серии как можно дольше, чтобы релизёр не столько продолжал раздавать старые серии, а смог сконцентрироваться на новых.
-
Вне форума [Профиль] [ЛС]
Похожие темы
Форум Тема Автор Торрент Отв. Посл. сообщение
./templates/default/images/folder_dl.gif Мультимедийные приложения Сергей Чурсинов | Мастер группы по интерьерному моделированию. Выпуск 1. "Двери. Окна" (2014) [unpacked] Omen
1 | 0

0 | 18

1

2015-04-01 20:09
Omen Последнее
./templates/default/images/folder_dl.gif Обучающее видео [Profileschool] Мастер-класс: Конвертация RAW от А до Я [2014, RUS] Omen
1 | 0

0 | 1415

42

2015-09-23 03:10
Omen Последнее
./templates/default/images/folder_dl.gif Обучающее видео Алексей Довгуля | Имиджевая фотография съемка и обработка. Мастер-класс (2017) PCRec Omen
1 | 0

0 | 579

11

2016-03-09 09:17
Omen Последнее
./templates/default/images/folder_dl.gif Обучающее видео Андрей Журавлев. | Мастер-класс. Цветокоррекция по числам. (2013) WEBRip [H.264] moralis
1 | 0

0 | 1734

33

2016-04-03 14:30
moralis Последнее
./templates/default/images/folder_dl.gif Обучающая и научно-популярная литература Фельденкрайз Мойша - Как стать психологом 6, Искусство движения. Уроки мастера [Валентина Краснянская, (ЛИ), 2003 г., 128 kbps, MP3] Omen
1 | 0

0 | 670

2

2016-06-12 21:00
Omen Последнее
./templates/default/images/folder_dl.gif Обучающее видео Анна Гис | Индивидуальный мастер-класс (2015) PCRec [H.264/1080p] moralis
1 | 0

0 | 542

13

2016-08-05 20:10
moralis Последнее
./templates/default/images/folder_dl.gif Архив АудиоМАСТЕР 2.0 RePack + Portable by Trovel [Ru] }{@R0N
1 | 0

0 | 843

6

2016-11-19 21:47
}{@R0N Последнее
./templates/default/images/folder_dl.gif Архив ФотоМАСТЕР 4.15 RePack (& Portable) by TryRooM [Ru] }{@R0N
1 | 0

1 | 174

1

2018-09-07 00:31
Dracula Последнее
Показать сообщения:    
Ответить на тему

Текущее время: Сегодня 14:15

Часовой пояс: GMT + 3



Вы не можете начинать темы
Вы не можете отвечать на сообщения
Вы не можете редактировать свои сообщения
Вы не можете удалять свои сообщения
Вы не можете голосовать в опросах
Вы не можете прикреплять файлы к сообщениям
Вы не можете скачивать файлы