Сегодня идет свободное скачивание без начисления Download

Карьер / Наемник Куорри / Quarry / Сезон: 1 / Серия: 1 из 8 (Грег Яйтанс, Джон Хиллкоут) [2016, драма, криминал, HDTVRip 720p] MVO (Jaskier) + Original

Ответить на тему
 
Автор
Сообщение

Omen ®

Стаж: 5 лет 9 месяцев

Сообщений: 184402

Торрент-статистика

Пост 13-Сен-2016 01:00

[Цитировать]

Карьер | Quarry -Оригинальное название: Quarry
Русское название: Карьер
Год выпуска: 2016
Страна: США
Жанр: Драма, криминал
Продолжительность: ~01:15:00 мин.-Перевод: Профессиональный (многоголосый закадровый) Студия Jaskier
Субтитры: Нет-Режиссёр: Грег Яйтанс, Джон Хиллкоут-В ролях: Логан Маршалл-Грин, Джоди Бальфур, Питер Муллан, Никки Амука-Бёрд, Дэймон Херриман, Эдоардо Баллерини, Хлоя Элиз, Джош Рэндэлл, Мустафа Жакир, Джошуа Дж. Уильямс и другие-Описание: Дело происходит в 1973 году. Снайпер Куорри возвращается из третьей военной командировки во Вьетнам и обнаруживает, что люди не видят в нём героя, скорее демонизируя образ американского солдата, а старые друзья так и вовсе от него отвернулись. От разочарования он подаётся в разветвлённую сеть наёмных убийц и коррупционеров, действующую на всей протяжённости Миссисипи.-Сэмпл-Качество: HDTVRip 720p
Формат: MKV
Видео кодек: AVC
Аудио кодек: AC3
Видео: 1280x718 (16:9), 23.976 fps, ~2800kbps, ~0.109 bit/pixel-Аудио 1: Dolby AC3 48000Hz stereo 192Kbps Русский
Аудио 2: Dolby AC3 48000Hz 5.1 384Kbps Оригинал (Английский)-

MediaInfo

Код:
General
Unique ID                   : 204615225341972321340356520182090038155 (0x99EF757E2A1074D480BEA0F6842BFB8B)
Complete name               : XXXXXXXXXXXXXXX\Quarry. Season 1 (HDTVRip l 720p l Jaskier)\Quarry.S01E01.720p.HDTVRip.Jaskier.Rus.Eng.mkv
Format                      : Matroska
Format version              : Version 4 / Version 2
File size                   : 1.60 GiB
Duration                    : 1h 15mn
Overall bit rate            : 3 027 Kbps
Movie name                  : American Dad Season 11 (WEB-DL | 1080p | v.serij2013)
Encoded date                : UTC 2016-09-12 06:09:40
Writing application         : mkvmerge v8.2.0 ('World of Adventure') 64bit
Writing library             : libebml v1.3.1 + libmatroska v1.4.2
Video
ID                          : 1
Format                      : AVC
Format/Info                 : Advanced Video Codec
Format profile              : High@L4.1
Format settings, CABAC      : Yes
Format settings, ReFrames   : 5 frames
Codec ID                    : V_MPEG4/ISO/AVC
Duration                    : 1h 15mn
Bit rate                    : 2 391 Kbps
Width                       : 1 280 pixels
Height                      : 718 pixels
Display aspect ratio        : 16:9
Frame rate mode             : Constant
Frame rate                  : 23.976 (24000/1001) fps
Color space                 : YUV
Chroma subsampling          : 4:2:0
Bit depth                   : 8 bits
Scan type                   : Progressive
Bits/(Pixel*Frame)          : 0.109
Stream size                 : 1.27 GiB (79%)
Title                       : Original
Writing library             : x264 core 148 r2705 3f5ed56
Encoding settings           : cabac=1 / ref=5 / deblock=1:0:0 / analyse=0x3:0x113 / me=umh / subme=8 / psy=1 / psy_rd=1.00:0.00 / mixed_ref=1 / me_range=16 / chroma_me=1 / trellis=1 / 8x8dct=1 / cqm=0 / deadzone=21,11 / fast_pskip=1 / chroma_qp_offset=-2 / threads=18 / lookahead_threads=3 / sliced_threads=0 / nr=0 / decimate=1 / interlaced=0 / bluray_compat=0 / constrained_intra=0 / bframes=3 / b_pyramid=2 / b_adapt=2 / b_bias=0 / direct=3 / weightb=1 / open_gop=0 / weightp=2 / keyint=250 / keyint_min=23 / scenecut=40 / intra_refresh=0 / rc_lookahead=50 / rc=crf / mbtree=1 / crf=18.0 / qcomp=0.60 / qpmin=0 / qpmax=69 / qpstep=4 / ip_ratio=1.40 / aq=1:1.00
Language                    : English
Default                     : Yes
Forced                      : No
Color range                 : Limited
Matrix coefficients         : BT.709
Audio #1
ID                          : 2
Format                      : AC-3
Format/Info                 : Audio Coding 3
Mode extension              : CM (complete main)
Format settings, Endianness : Big
Codec ID                    : A_AC3
Duration                    : 1h 15mn
Bit rate mode               : Constant
Bit rate                    : 192 Kbps
Channel(s)                  : 2 channels
Channel positions           : Front: L R
Sampling rate               : 48.0 KHz
Frame rate                  : 31.250 fps (1536 spf)
Compression mode            : Lossy
Stream size                 : 104 MiB (6%)
Title                       : Jaskier
Language                    : Russian
Default                     : Yes
Forced                      : No
Audio #2
ID                          : 3
Format                      : AC-3
Format/Info                 : Audio Coding 3
Mode extension              : CM (complete main)
Format settings, Endianness : Big
Codec ID                    : A_AC3
Duration                    : 1h 15mn
Bit rate mode               : Constant
Bit rate                    : 384 Kbps
Channel(s)                  : 6 channels
Channel positions           : Front: L C R, Side: L R, LFE
Sampling rate               : 48.0 KHz
Frame rate                  : 31.250 fps (1536 spf)
Compression mode            : Lossy
Stream size                 : 208 MiB (13%)
Title                       : Original
Language                    : English
Default                     : No
Forced                      : No

Скриншоты

Внимание! Раздача ведётся путём добавления новых серий.

Внимание! Раздача ведётся путём добавления новых серий; при каждом добавлении создётся новый торрент. Чтобы начать докачку новой серии, пользователям необходимо сделать следующее:
  • Остановить скачивание.
  • Удалить старый торрент у себя из клиента (старые серии удалять не надо).
  • Скачать новый торрент и запустить его у себя в клиенте вместо старого, при этом указать клиенту путь в старую папку куда и должно происходить скачивание новых серий.
    Ваш клиент при этом должен произвести хеширование (проверку) старой папки (если не производит сам - помогите ему сделать это), и будет докачивать только те серии которых у вас ещё нет. Старые серии при этом не удаляются, а продолжают раздаваться!
    Eсли вы уже удалили старые серии, то предотвратить повторную закачку старых серий можно, отжав галочку в соответсвующих местах при запуске нового торрента. По возможности, желательно не удалять старые серии как можно дольше чтобы релизёр не столько продолжал раздавать старые серии, а смог сконцентрироваться на новых.
Вне форума [Профиль] [ЛС]
Показать сообщения:    
Ответить на тему

Текущее время: Сегодня 03:35

Часовой пояс: GMT + 3



Вы не можете начинать темы
Вы не можете отвечать на сообщения
Вы не можете редактировать свои сообщения
Вы не можете удалять свои сообщения
Вы не можете голосовать в опросах
Вы не можете прикреплять файлы к сообщениям
Вы не можете скачивать файлы