Сегодня идет свободное скачивание без начисления Download

Эш против Зловещих мертвецов / Ash vs Evil Dead / Сезон: 1 / Серии: 1-10 из 10 (Сэм Рэйми / Sam Raimi) [2015, ужасы, боевик, комедия, BDRip-AVC] MVO (NewStudio) + DVO (Кубик в кубе) + AVO (Пучков) + Original + Rus Subs

Ответить на тему
 
Автор
Сообщение

Omen ®

Стаж: 5 лет 9 месяцев

Сообщений: 184433

Торрент-статистика

Пост 12-Сен-2016 01:00

[Цитировать]

Эш против зловещих мертвецов - Первый сезонAsh vs. Evil Dead - The First Season- Год выпуска: 2015
Страна: США
Жанр: ужасы, боевик, комедия-Продолжительность: 00:30:00
Перевод #1: Профессиональный (многоголосый закадровый) NewStudio
Перевод #2: Профессиональный (двухголосый закадровый) Кубик в кубе
Перевод #3: Авторский (одноголосый закадровый) Д. Пучков
Режиссёр: Сэм Рэйми / Sam Raimi
В ролях: Брюс Кемпбелл, Рэй Сантьяго, Дейна ДеЛоренцо, Джилл Мари Джонс, Люси Лолесс, Мишель Хёрд, Самара Уивинг и др.-Описание: 30 лет он избегал ответственности за свои поступки, упорно старался не взрослеть и не особо стремился вновь встретиться с ожившими мертвецами. Но, совершив ошибку, Эш узнает, что проказа кандарийских демонов угрожает распространиться по всей планете и ему снова приходится вступить в схватку с полчищами мертвой нечисти. Реки крови, горы трупов и, конечно, искрометный черный юмор – отличный подарок всем любителям ужасов, комедий, крови, треша и угара.-Sample | КиноПоиск | IMDb | MyShows | TV-Качество: BDRip-AVC (Источник: Ash.vs.Evil.Dead.S01.1080p.BluRay.Remux.AVC.TrueHD.7.1-KRaLiMaRKo)
Формат: MKV
Видео: x264, 960x540 (16:9), 23.976 fps, ~2000 kbps avg, 0.161 bit/pixel
Аудио #1: Russian 48.0 KHz, AC3, 2 channels, ~192.00 kbps avg |NewStudio|
Аудио #2: Russian 48.0 KHz, AC3, 2 channels, ~192.00 kbps avg |Кубик в кубе|
Аудио #3: Russian 48.0 KHz, AC3, 2 channels, ~192.00 kbps avg |Пучков|
Аудио #4: English 48.0 KHz, AC3, 6 channels, ~384.00 kbps avg |Original|
Субтитры: русские (Amedia)-

Релиз

Релиз -
Рип, синхронизация аудио и субтитров - whip93.

MediaInfo

GeneralUnique ID : 177927948778545325478444492278555722917 (0x85DBAD2BCD0CDAC7802490BD4F8FC4A5)Complete name : G:\Ash vs. Evil Dead Season 1 CasStudio.TV\Ash.vs.Evil.Dead.S01E01.BDRip.3xRus.Eng.CasStudio.TV.mkvFormat : MatroskaFormat version : Version 4 / Version 2File size : 864 MiBDuration : 40mn 46sOverall bit rate : 2 963 KbpsMovie name : Эш против зловещих мертвецов | Ash vs. Evil Dead (S01E01) - Release by CasStudio.TVEncoded date : UTC 2016-09-08 16:38:24Writing application : mkvmerge v6.1.0 ('Old Devil') built on Mar 4 2013 09:10:42Writing library : libebml v1.3.0 + libmatroska v1.4.0
VideoID : 1Format : AVCFormat/Info : Advanced Video CodecFormat profile : High@L4.1Format settings, CABAC : YesFormat settings, ReFrames : 12 framesCodec ID : V_MPEG4/ISO/AVCDuration : 40mn 46sBit rate : 2 000 KbpsWidth : 960 pixelsHeight : 540 pixelsDisplay aspect ratio : 16:9Frame rate mode : ConstantFrame rate : 23.976 fpsColor space : YUVChroma subsampling : 4:2:0Bit depth : 8 bitsScan type : ProgressiveBits/(Pixel*Frame) : 0.161Stream size : 567 MiB (66%)Title : Encoded by whip93Writing library : x264 core 148 r2705kMod 3f5ed56Encoding settings : cabac=1 / ref=13 / deblock=1:-3:-3 / analyse=0x3:0x133 / me=umh / subme=9 / psy=1 / fade_compensate=0.00 / psy_rd=1.00:0.08 / mixed_ref=1 / me_range=64 / chroma_me=1 / trellis=1 / 8x8dct=1 / cqm=0 / deadzone=21,11 / fast_pskip=1 / chroma_qp_offset=-3 / threads=12 / lookahead_threads=1 / sliced_threads=0 / nr=0 / decimate=1 / interlaced=0 / bluray_compat=0 / constrained_intra=0 / fgo=0 / bframes=13 / b_pyramid=1 / b_adapt=1 / b_bias=0 / direct=3 / weightb=1 / open_gop=0 / weightp=2 / keyint=250 / keyint_min=23 / scenecut=40 / intra_refresh=0 / rc_lookahead=60 / rc=2pass / mbtree=1 / bitrate=2000 / ratetol=1.0 / qcomp=0.72 / qpmin=0 / qpmax=69 / qpstep=4 / cplxblur=20.0 / qblur=0.5 / vbv_maxrate=62500 / vbv_bufsize=78125 / nal_hrd=none / filler=0 / ip_ratio=1.40 / aq=1:1.00Language : EnglishDefault : YesForced : NoColor primaries : BT.709Transfer characteristics : BT.709Matrix coefficients : BT.709
Audio #1ID : 2Format : AC-3Format/Info : Audio Coding 3Mode extension : CM (complete main)Format settings, Endianness : BigCodec ID : A_AC3Duration : 40mn 46sBit rate mode : ConstantBit rate : 192 KbpsChannel(s) : 2 channelsChannel positions : Front: L RSampling rate : 48.0 KHzBit depth : 16 bitsCompression mode : LossyStream size : 56.0 MiB (6%)Title : MVO (NewStudio)Language : RussianDefault : YesForced : No
Audio #2ID : 3Format : AC-3Format/Info : Audio Coding 3Mode extension : CM (complete main)Format settings, Endianness : BigCodec ID : A_AC3Duration : 40mn 46sBit rate mode : ConstantBit rate : 192 KbpsChannel(s) : 2 channelsChannel positions : Front: L RSampling rate : 48.0 KHzBit depth : 16 bitsCompression mode : LossyStream size : 56.0 MiB (6%)Title : DVO (Кубик в кубе)Language : RussianDefault : NoForced : No
Audio #3ID : 4Format : AC-3Format/Info : Audio Coding 3Mode extension : CM (complete main)Format settings, Endianness : BigCodec ID : A_AC3Duration : 40mn 46sBit rate mode : ConstantBit rate : 192 KbpsChannel(s) : 2 channelsChannel positions : Front: L RSampling rate : 48.0 KHzBit depth : 16 bitsCompression mode : LossyStream size : 56.0 MiB (6%)Title : AVO (Д. Пучков)Language : RussianDefault : NoForced : No
Audio #4ID : 5Format : AC-3Format/Info : Audio Coding 3Mode extension : CM (complete main)Format settings, Endianness : BigCodec ID : A_AC3Duration : 40mn 46sBit rate mode : ConstantBit rate : 384 KbpsChannel(s) : 6 channelsChannel positions : Front: L C R, Side: L R, LFESampling rate : 48.0 KHzBit depth : 16 bitsCompression mode : LossyStream size : 112 MiB (13%)Title : OriginalLanguage : EnglishDefault : NoForced : No
TextID : 6Format : UTF-8Codec ID : S_TEXT/UTF8Codec ID/Info : UTF-8 Plain TextLanguage : RussianDefault : NoForced : No
Menu00:00:00.000 : en:00:00:00.00000:13:22.301 : en:00:13:22.30100:20:06.872 : en:00:20:06.87200:29:51.623 : en:00:29:51.62300:39:08.680 : en:00:39:08.680

Скриншоты

-
Вне форума [Профиль] [ЛС]
Показать сообщения:    
Ответить на тему

Текущее время: Сегодня 03:12

Часовой пояс: GMT + 3



Вы не можете начинать темы
Вы не можете отвечать на сообщения
Вы не можете редактировать свои сообщения
Вы не можете удалять свои сообщения
Вы не можете голосовать в опросах
Вы не можете прикреплять файлы к сообщениям
Вы не можете скачивать файлы