Сегодня идет свободное скачивание без начисления Download

В последний миг / Eleventh Hour / Сезон: 1 / Серии: 1-18 из 18 (Денни Кэннон / Danny Cannon) [2008, драма, триллер, фантастика, HDTVRip] MVO (SyFy)

Ответить на тему
 
Автор
Сообщение

Omen ®

Стаж: 6 лет 1 месяц

Сообщений: 184308

Торрент-статистика

Пост 12-Сен-2016 01:00

[Цитировать]

В последний миг / Eleventh Hour
Год выпуска: 2008
Страна: США
Жанр: драма, триллер, фантастика
Продолжительность: 00:43:42
Перевод: Профессиональный (многоголосый закадровый) - SyFy

Режиссёр: Денни Кэннон / Danny Cannon
В ролях: Руфус Сьюэлл, Марли Шелтон, Омар Бенсон Миллер, Крис Краузер, Эрика Френ, Лейла, Марк С. Болдуин, Стивен Богардус, Патрик Кэрролл, Джон Кассини
Описание: Доктор Джейкоб Гуд — выдающийся биофизик и особый советник правительства по научным вопросам. Он расследует научные кризисы и загадочные феномены. Гуд идет по следу каждого, кто использует научные открытия в собственных целях. Его страсть и миссия — защитить науку от нечестивых. Его зовут в последнюю минуту, и он — последний защитный рубеж.
Сэмпл
Качество: HDTVRip
Формат: AVI
Видео: 704x400 (1.76:1), 23.976 fps, XviD build 73 ~1999 kbps avg, 0.30 bit/pixel
Аудио: 48 kHz, AC3 Dolby Digital, 2/0 (L,R) ch, ~192 kbps
Субтитры: отсутствуют

Список серий

01 - Воскрешение / Resurrection
02 - Сердце / Cardiac
03 - Сельское хозяйство / Agro
04 - Савант / Savant
05 - Локализация / Containment
06 - Замороженная / Frozen
07 - Всплеск напряжения / Surge
08 - Титаны / Titans
09 - Плоть / Flesh
10 - H2O / H2O
11 - Чудо / Miracle
12 - Вечное / Eternal
13 - Пиноккио / Pinocchio
14 - Минамата / Minamata
15 - Электро / Electro
16 - Метро / Subway
17 - Запахз / Olfactus
18 - Медея / Medea

MediaInfo

Общее
Полное имя : H:\Eleventh.Hour\s01e04_Savant.avi
Формат : AVI
Формат/Информация : Audio Video Interleave
Размер файла : 688 Мбайт
Продолжительность : 43 м.
Общий поток : 2201 Кбит/сек
Программа кодирования : VirtualDubMod 1.5.10.3 | www.virtualdub-fr.org || (build 2550/release)
Библиотека кодирования : VirtualDubMod build 2550/release
Видео
Идентификатор : 0
Формат : MPEG-4 Visual
Профиль формата : Advanced Simple@L5
Параметр BVOP формата : 2
Параметр QPel формата : Нет
Параметр GMC формата : Без точки перехода
Параметр матрицы формата : Выборочная
Идентификатор кодека : XVID
Идентификатор кодека/Подсказка : XviD
Продолжительность : 43 м.
Битрейт : 2000 Кбит/сек
Ширина : 704 пикселя
Высота : 400 пикселей
Соотношение сторон : 16:9
Частота кадров : 23,976 кадра/сек
Цветовое пространство : YUV
Субдискретизация насыщенности : 4:2:0
Битовая глубина : 8 бит
Тип развёртки : Прогрессивная
Метод сжатия : С потерями
Бит/(Пиксели*Кадры) : 0.296
Размер потока : 625 Мбайт (91%)
Библиотека кодирования : XviD 73
Аудио
Идентификатор : 1
Формат : AC-3
Формат/Информация : Audio Coding 3
Расширение режима : CM (complete main)
Параметр Endianness формата : Big
Идентификатор кодека : 2000
Продолжительность : 43 м.
Вид битрейта : Постоянный
Битрейт : 192 Кбит/сек
Каналы : 2 канала
Расположение каналов : Front: L R
Частота : 48,0 КГц
Битовая глубина : 16 бит
Метод сжатия : С потерями
Размер потока : 59,9 Мбайт (9%)
Выравнивание : Разделение по промежуткам
Продолжительность промежутка : 42 мс. (1,00 видеокадр)
Время предзагрузки промежутка : 500 мс.
--
Вне форума [Профиль] [ЛС]
Показать сообщения:    
Ответить на тему

Текущее время: Сегодня 23:43

Часовой пояс: GMT + 3



Вы не можете начинать темы
Вы не можете отвечать на сообщения
Вы не можете редактировать свои сообщения
Вы не можете удалять свои сообщения
Вы не можете голосовать в опросах
Вы не можете прикреплять файлы к сообщениям
Вы не можете скачивать файлы