Today is a free download without charge Download

(Symphonic Power Metal) [CD] Twilight Force - Heroes Of Mighty Magic (Limited Edition 2CD) - 2016, FLAC (image+.cue), lossless

Reply to topic
 
Author
Message

Omen ®

Longevity: 8 years 5 months

Posts: 181087

Торрент-статистика

Post 11-Sep-2016 01:00

[Quote]

-Twilight Force - Heroes Of Mighty Magic (Limited Edition 2CD)
Жанр: Symphonic Power Metal
Страна исполнителя: Sweden (Falun/Borlänge)
Носитель: CD
Год издания: 2016
Страна-производитель диска: Germany
Издатель: Nuclear Blast Records
Номер по каталогу: 27361 37890
Аудиокодек: FLAC (*.flac)
Тип рипа: image+.cue
Битрейт аудио: lossless
Источник (релизер): Собственныe CD
Наличие сканов: Да (Complete 600 DPI)
Доп. информация: Encyclopaedia Metallum-

Состав


Chrileon - Vocals: Blackwald - Violin, Cembalo, Piano, Keyboards:
Aerendir - Guitars: Lynd - Guitars: De'Azsh - Drums: Borne - Bass:

-

CD1: - 01:10:27

01. Battle of Arcane Might
02. Powerwind
03. Guardian of the Seas
04. Flight of the Sapphire Dragon
05. There and Back Again
06. Riders of the Dawn
07. Keepers of Fate
08. Rise of a Hero
09. To the Stars
10. Heroes of Mighty Magic
11. Epilogue
12. Knights of Twilight's Might

Лог создания рипа

Exact Audio Copy V1.2 from 12. August 2016
EAC extraction logfile from 10. September 2016, 0:50
Twilight Force / Heroes of Mighty Magic
Used drive : ATAPI iHAS122 W Adapter: 2 ID: 0
Read mode : SecureUtilize accurate stream : YesDefeat audio cache : YesMake use of C2 pointers : No
Read offset correction : 48Overread into Lead-In and Lead-Out : NoFill up missing offset samples with silence : YesDelete leading and trailing silent blocks : NoNull samples used in CRC calculations : YesUsed interface : Installed external ASPI interface
Used output format : User Defined EncoderSelected bitrate : 1024 kBit/sQuality : HighAdd ID3 tag : NoCommand line compressor : C:\Program Files\FLAC\flac.exeAdditional command line options : -V -8 -T "Date=%year%" -T "Genre=%genre%" -T"COMMENT=Ripped by Ilijan" -8 -V %source%
TOC of the extracted CD
Track | Start | Length | Start sector | End sector --------------------------------------------------------- 1 | 0:00.00 | 5:06.64 | 0 | 23013 2 | 5:06.64 | 5:16.42 | 23014 | 46755 3 | 10:23.31 | 5:38.41 | 46756 | 72146 4 | 16:01.72 | 5:40.18 | 72147 | 97664 5 | 21:42.15 | 10:14.03 | 97665 | 143717 6 | 31:56.18 | 3:46.01 | 143718 | 160668 7 | 35:42.19 | 5:38.01 | 160669 | 186019 8 | 41:20.20 | 5:13.00 | 186020 | 209494 9 | 46:33.20 | 5:32.11 | 209495 | 234405 10 | 52:05.31 | 9:57.47 | 234406 | 279227 11 | 62:03.03 | 6:39.12 | 279228 | 309164 12 | 68:42.15 | 1:45.32 | 309165 | 317071
Range status and errors
Selected range
Filename D:\ilко\Twilight Force - Heroes of Mighty Magic.wav
Peak level 100.0 % Extraction speed 4.4 X Range quality 100.0 % Test CRC D3117812 Copy CRC D3117812 Copy OK
No errors occurred
AccurateRip summary
Track 1 not present in databaseTrack 2 not present in databaseTrack 3 not present in databaseTrack 4 not present in databaseTrack 5 not present in databaseTrack 6 not present in databaseTrack 7 not present in databaseTrack 8 not present in databaseTrack 9 not present in databaseTrack 10 not present in databaseTrack 11 not present in databaseTrack 12 not present in database
None of the tracks are present in the AccurateRip database
End of status report
---- CUETools DB Plugin V2.1.6
[CTDB TOCID: JWUFcBmTQyf0GLl43wj2OSDMTrQ-] foundSubmit result: JWUFcBmTQyf0GLl43wj2OSDMTrQ- has been confirmedTrack | CTDB Status 1 | (17/17) Accurately ripped 2 | (17/17) Accurately ripped 3 | (17/17) Accurately ripped 4 | (17/17) Accurately ripped 5 | (17/17) Accurately ripped 6 | (17/17) Accurately ripped 7 | (17/17) Accurately ripped 8 | (17/17) Accurately ripped 9 | (17/17) Accurately ripped 10 | (17/17) Accurately ripped 11 | (17/17) Accurately ripped 12 | (17/17) Accurately ripped
==== Log checksum 3A86033E99B0162A9BB5D145C59194725C30D5EEFD4413209E3EF1D0BDC53356 ====
-

CD2: - 00:35:31

01. Rise of a Hero (Orchestral Version)
02. Flight of the Sapphire Dragon (Orchestral Version)
03. Heroes of Mighty Magic (Orchestral Version)
04. Battle of Arcane Might (Karaoke Version)
05. There and Back Again (Short Version)
06. Powerwind (Chip Version)

Лог создания рипа

Exact Audio Copy V1.2 from 12. August 2016
EAC extraction logfile from 10. September 2016, 1:15
Twilight Force / Heroes of Mighty Magic (Bonus Disc)
Used drive : ATAPI iHAS122 W Adapter: 2 ID: 0
Read mode : SecureUtilize accurate stream : YesDefeat audio cache : YesMake use of C2 pointers : No
Read offset correction : 48Overread into Lead-In and Lead-Out : NoFill up missing offset samples with silence : YesDelete leading and trailing silent blocks : NoNull samples used in CRC calculations : YesUsed interface : Installed external ASPI interface
Used output format : User Defined EncoderSelected bitrate : 1024 kBit/sQuality : HighAdd ID3 tag : NoCommand line compressor : C:\Program Files\FLAC\flac.exeAdditional command line options : -V -8 -T "Date=%year%" -T "Genre=%genre%" -T"COMMENT=Ripped by Ilijan" -8 -V %source%
TOC of the extracted CD
Track | Start | Length | Start sector | End sector --------------------------------------------------------- 1 | 0:00.00 | 5:13.67 | 0 | 23541 2 | 5:13.67 | 5:40.26 | 23542 | 49067 3 | 10:54.18 | 9:54.40 | 49068 | 93657 4 | 20:48.58 | 5:06.29 | 93658 | 116636 5 | 25:55.12 | 4:58.12 | 116637 | 138998 6 | 30:53.24 | 4:37.58 | 138999 | 159831
Range status and errors
Selected range
Filename D:\ilко\Twilight Force - Heroes of Mighty Magic (Bonus Disc).wav
Peak level 100.0 % Extraction speed 3.4 X Range quality 99.9 % Test CRC 6D85965E Copy CRC 6D85965E Copy OK
No errors occurred
AccurateRip summary
Track 1 not present in databaseTrack 2 not present in databaseTrack 3 not present in databaseTrack 4 not present in databaseTrack 5 not present in databaseTrack 6 not present in database
None of the tracks are present in the AccurateRip database
End of status report
---- CUETools DB Plugin V2.1.6
[CTDB TOCID: qGslU0bmw1DMnFnI0ZZegzj5Txo-] foundSubmit result: qGslU0bmw1DMnFnI0ZZegzj5Txo- has been confirmedTrack | CTDB Status 1 | (14/14) Accurately ripped 2 | (14/14) Accurately ripped 3 | (14/14) Accurately ripped 4 | (14/14) Accurately ripped 5 | (14/14) Accurately ripped 6 | (14/14) Accurately ripped
==== Log checksum BFC15D31911E63B15A6A91437E2B0CC05A2CA6FBAAF2A424CA7BAF2515EFC3B7 ====
-
Other forum [Profile] [PM]
Similar theme
Forum Topic Author Torrent Replies Last Post
./templates/default/images/folder_dl.gif Metal (Symphonic, Progressive Power Metal) Serenity - Lionheart (Digipack, 2CD) - 2017 [FLAC, image +.cue, lossless] sergej644
1 | 0

0 | 2814

9

2018-01-27 18:45
sergej644 Latest
Display posts from previous:    
Reply to topic

The time now is: Today 06:48

All times are GMT + 3 Hours



You cannot post new topics in this forum
You cannot reply to topics in this forum
You cannot edit your posts in this forum
You cannot delete your posts in this forum
You cannot vote in polls in this forum
You cannot attach files in this forum
You cannot download files in this forum