Today is a free download without charge Download

(Rock\'n\'Roll / Rockabilly) [CD] The Baseballs - Hit Me Baby... - 2016, FLAC (tracks+.cue), lossless

Reply to topic
 
Author
Message

Omen ®

Longevity: 8 years 5 months

Posts: 181087

Торрент-статистика

Post 10-Sep-2016 01:01

[Quote]

The Baseballs / Hit Me Baby...-ЖанрGenre: Rock'n'Roll / Rockabilly
НосительMedia: CD
Год выпуска дискаCD release: 2016
Производитель дискаCD manufacturer: Warner Music, Germany
Издатель (лейбл)Label: Warner Music / Harder
Номер по каталогуCatalog #: 0190295920517-АудиокодекCodec: FLAC (*.flac)
Тип рипаRip type: tracks+.cue
Битрейт аудиоBit rate: lossless
ПродолжительностьDuration: 00:52:35
ИсточникSource: собственный рип ● own rip
Наличие сканов в раздачeScans included: частично ● partially (сканы 600 dpi будут через месяц)-MP3: [url=viewtopic.php?t=5279840](Rock'n'Roll / Rockabilly) The Baseballs - Hit Me Baby... - 2016, MP3 (tracks) 320 kbps[/url]
ДискографияDiscography: [url=viewtopic.php?t=4299127](Rock'n'Roll / Rockabilly) [CD] The Baseballs - Дискография / Discography (9 Albums, 4 Singles), 2009-2014, FLAC (tracks+.cue), lossless[/url]

Треклист ● Track list

01. Back For Good [0:03:20.16]
02. Survivor [0:03:08.55]
03. The Sign [0:02:54.57]
04. Let's Talk About Sex [0:03:30.63]
05. I Believe I Can Fly [0:03:20.24]
06. ...Baby One More Time [0:03:12.74]
07. Shackles (Praise You) [0:03:32.58]
08. Like A Champion [0:03:32.61]
09. No Matter What [0:03:13.58]
10. Daylight In Your Eyes [0:02:58.65]
11. Believe [0:03:35.24]
12. Wannabe [0:02:46.64]
13. Never Ever [0:03:37.55]
14. You Raise Me Up [0:02:48.74]
15. Overload [0:03:44.37]
16. Everybody (Baseballs' Back) [0:03:15.30]

Лог создания рипа ● EAC log file

Exact Audio Copy V1.1 from 23. June 2015
EAC extraction logfile from 9. September 2016, 13:50
The Baseballs / Hit Me Baby...
Used drive : PLEXTOR CD-R PX-230A Adapter: 1 ID: 0
Read mode : SecureUtilize accurate stream : YesDefeat audio cache : YesMake use of C2 pointers : No
Read offset correction : 738Overread into Lead-In and Lead-Out : NoFill up missing offset samples with silence : YesDelete leading and trailing silent blocks : NoNull samples used in CRC calculations : YesUsed interface : Native Win32 interface for Win NT & 2000Gap handling : Appended to previous track
Used output format : User Defined EncoderSelected bitrate : 1024 kBit/sQuality : HighAdd ID3 tag : NoCommand line compressor : C:\Program Files\Exact Audio Copy\Flac\flac.exeAdditional command line options : -6 -V -T "ARTIST=%artist%" -T "TITLE=%title%" -T "ALBUM=%albumtitle%" -T "DATE=%year%" -T "TRACKNUMBER=%tracknr%" -T "GENRE=%genre%" -T "COMMENT=%comment%" -T "ALBUMARTIST=%albuminterpret%" -T "COMPOSER=%composer%" -T "DISCNUMBER=%cdnumber%" -T "TOTALDISCS=%totalcds%" -T "TOTALTRACKS=%numtracks%" %source% -o %dest%
TOC of the extracted CD
Track | Start | Length | Start sector | End sector --------------------------------------------------------- 1 | 0:00.00 | 3:20.16 | 0 | 15015 2 | 3:20.16 | 3:08.55 | 15016 | 29170 3 | 6:28.71 | 2:54.57 | 29171 | 42277 4 | 9:23.53 | 3:30.63 | 42278 | 58090 5 | 12:54.41 | 3:20.24 | 58091 | 73114 6 | 16:14.65 | 3:12.74 | 73115 | 87588 7 | 19:27.64 | 3:32.58 | 87589 | 103546 8 | 23:00.47 | 3:32.61 | 103547 | 119507 9 | 26:33.33 | 3:13.58 | 119508 | 134040 10 | 29:47.16 | 2:58.65 | 134041 | 147455 11 | 32:46.06 | 3:35.24 | 147456 | 163604 12 | 36:21.30 | 2:46.64 | 163605 | 176118 13 | 39:08.19 | 3:37.55 | 176119 | 192448 14 | 42:45.74 | 2:48.74 | 192449 | 205122 15 | 45:34.73 | 3:44.37 | 205123 | 221959 16 | 49:19.35 | 3:15.30 | 221960 | 236614
Track 1
Filename C:\Music\01 - Back For Good.wav
Pre-gap length 0:00:02.00
Peak level 98.6 % Extraction speed 3.6 X Track quality 100.0 % Test CRC 2EA79673 Copy CRC 2EA79673 Track not present in AccurateRip database Copy OK
Track 2
Filename C:\Music\02 - Survivor.wav
Peak level 99.9 % Extraction speed 4.1 X Track quality 100.0 % Test CRC 9B9EC6E4 Copy CRC 9B9EC6E4 Track not present in AccurateRip database Copy OK
Track 3
Filename C:\Music\03 - The Sign.wav
Peak level 98.6 % Extraction speed 4.2 X Track quality 100.0 % Test CRC D4525748 Copy CRC D4525748 Track not present in AccurateRip database Copy OK
Track 4
Filename C:\Music\04 - Let's Talk About Sex.wav
Peak level 99.9 % Extraction speed 3.5 X Track quality 99.9 % Test CRC 5B4DD9B1 Copy CRC 5B4DD9B1 Track not present in AccurateRip database Copy OK
Track 5
Filename C:\Music\05 - I Believe I Can Fly.wav
Peak level 99.2 % Extraction speed 3.7 X Track quality 100.0 % Test CRC 97D4BB89 Copy CRC 97D4BB89 Track not present in AccurateRip database Copy OK
Track 6
Filename C:\Music\06 - ...Baby One More Time.wav
Peak level 99.7 % Extraction speed 4.0 X Track quality 100.0 % Test CRC 86B1CA70 Copy CRC 86B1CA70 Track not present in AccurateRip database Copy OK
Track 7
Filename C:\Music\07 - Shackles (Praise You).wav
Peak level 98.6 % Extraction speed 4.3 X Track quality 100.0 % Test CRC 12E77151 Copy CRC 12E77151 Track not present in AccurateRip database Copy OK
Track 8
Filename C:\Music\08 - Like A Champion.wav
Peak level 98.6 % Extraction speed 3.4 X Track quality 99.9 % Test CRC 2FC17F1F Copy CRC 2FC17F1F Track not present in AccurateRip database Copy OK
Track 9
Filename C:\Music\09 - No Matter What.wav
Peak level 98.6 % Extraction speed 4.6 X Track quality 100.0 % Test CRC 6FA5A688 Copy CRC 6FA5A688 Track not present in AccurateRip database Copy OK
Track 10
Filename C:\Music\10 - Daylight In Your Eyes.wav
Peak level 98.6 % Extraction speed 3.8 X Track quality 100.0 % Test CRC 8DDA08F7 Copy CRC 8DDA08F7 Track not present in AccurateRip database Copy OK
Track 11
Filename C:\Music\11 - Believe.wav
Peak level 98.6 % Extraction speed 4.3 X Track quality 100.0 % Test CRC 77C69C21 Copy CRC 77C69C21 Track not present in AccurateRip database Copy OK
Track 12
Filename C:\Music\12 - Wannabe.wav
Peak level 98.6 % Extraction speed 3.6 X Track quality 100.0 % Test CRC A646A626 Copy CRC A646A626 Track not present in AccurateRip database Copy OK
Track 13
Filename C:\Music\13 - Never Ever.wav
Peak level 98.6 % Extraction speed 4.0 X Track quality 100.0 % Test CRC E0F1A349 Copy CRC E0F1A349 Track not present in AccurateRip database Copy OK
Track 14
Filename C:\Music\14 - You Raise Me Up.wav
Peak level 98.6 % Extraction speed 3.3 X Track quality 99.9 % Test CRC 12E045DB Copy CRC 12E045DB Track not present in AccurateRip database Copy OK
Track 15
Filename C:\Music\15 - Overload.wav
Peak level 98.6 % Extraction speed 3.9 X Track quality 100.0 % Test CRC 81852C9F Copy CRC 81852C9F Track not present in AccurateRip database Copy OK
Track 16
Filename C:\Music\16 - Everybody (Baseballs' Back).wav
Peak level 98.6 % Extraction speed 3.7 X Track quality 100.0 % Test CRC 81699D9D Copy CRC 81699D9D Track not present in AccurateRip database Copy OK
None of the tracks are present in the AccurateRip database
No errors occurred
End of status report
---- CUETools DB Plugin V2.1.6
[CTDB TOCID: dE9LM8nyIghyFmmFVueONlyjMSw-] disk not present in databaseSubmit result: dE9LM8nyIghyFmmFVueONlyjMSw- has been uploaded
==== Log checksum B6997E8C4DE8711FF7EF49BF3ED73E9880554C654B6932EFA585EEFCD70643A2 ====

Содержание индексной карты (.CUE) ● CUE sheet

REM GENRE RockREM DATE 2016REM DISCID 010C5210REM COMMENT "ExactAudioCopy v1.1"PERFORMER "The Baseballs"TITLE "Hit Me Baby..."FILE "01 - Back For Good.wav" WAVE TRACK 01 AUDIO TITLE "Back For Good" PERFORMER "The Baseballs" INDEX 01 00:00:00FILE "02 - Survivor.wav" WAVE TRACK 02 AUDIO TITLE "Survivor" PERFORMER "The Baseballs" INDEX 01 00:00:00FILE "03 - The Sign.wav" WAVE TRACK 03 AUDIO TITLE "The Sign" PERFORMER "The Baseballs" INDEX 01 00:00:00FILE "04 - Let's Talk About Sex.wav" WAVE TRACK 04 AUDIO TITLE "Let's Talk About Sex" PERFORMER "The Baseballs" INDEX 01 00:00:00FILE "05 - I Believe I Can Fly.wav" WAVE TRACK 05 AUDIO TITLE "I Believe I Can Fly" PERFORMER "The Baseballs" INDEX 01 00:00:00FILE "06 - ...Baby One More Time.wav" WAVE TRACK 06 AUDIO TITLE "...Baby One More Time" PERFORMER "The Baseballs" INDEX 01 00:00:00FILE "07 - Shackles (Praise You).wav" WAVE TRACK 07 AUDIO TITLE "Shackles (Praise You)" PERFORMER "The Baseballs" INDEX 01 00:00:00FILE "08 - Like A Champion.wav" WAVE TRACK 08 AUDIO TITLE "Like A Champion" PERFORMER "The Baseballs" INDEX 01 00:00:00FILE "09 - No Matter What.wav" WAVE TRACK 09 AUDIO TITLE "No Matter What" PERFORMER "The Baseballs" INDEX 01 00:00:00FILE "10 - Daylight In Your Eyes.wav" WAVE TRACK 10 AUDIO TITLE "Daylight In Your Eyes" PERFORMER "The Baseballs" INDEX 01 00:00:00FILE "11 - Believe.wav" WAVE TRACK 11 AUDIO TITLE "Believe" PERFORMER "The Baseballs" INDEX 01 00:00:00FILE "12 - Wannabe.wav" WAVE TRACK 12 AUDIO TITLE "Wannabe" PERFORMER "The Baseballs" INDEX 01 00:00:00FILE "13 - Never Ever.wav" WAVE TRACK 13 AUDIO TITLE "Never Ever" PERFORMER "The Baseballs" INDEX 01 00:00:00FILE "14 - You Raise Me Up.wav" WAVE TRACK 14 AUDIO TITLE "You Raise Me Up" PERFORMER "The Baseballs" INDEX 01 00:00:00FILE "15 - Overload.wav" WAVE TRACK 15 AUDIO TITLE "Overload" PERFORMER "The Baseballs" INDEX 01 00:00:00FILE "16 - Everybody (Baseballs' Back).wav" WAVE TRACK 16 AUDIO TITLE "Everybody (Baseballs' Back)" PERFORMER "The Baseballs" INDEX 01 00:00:00
Other forum [Profile] [PM]
Display posts from previous:    
Reply to topic

The time now is: Today 14:59

All times are GMT + 3 Hours



You cannot post new topics in this forum
You cannot reply to topics in this forum
You cannot edit your posts in this forum
You cannot delete your posts in this forum
You cannot vote in polls in this forum
You cannot attach files in this forum
You cannot download files in this forum