Сегодня идет свободное скачивание без начисления Download

Адам портит всё / Adam Ruins Everything / Сезон: 2 / Серии: 1 (12) (Пол Бриганти, Tim Wilkerson) [2016, США, комедия, HDTVRip 720p] DVO (Ozz) + Original + Subs (Rus, Eng)

Ответить на тему
 
Автор
Сообщение

Omen ®

Стаж: 5 лет 11 месяцев

Сообщений: 184329

Торрент-статистика

Пост 10-Сен-2016 01:00

[Цитировать]

Adam Ruins Everything - Second Season
Адам портит всё - Второй сезон- Год выхода: 2016
Страна: США
Жанр: комедия
Продолжительность: ~21 мин
Перевод: Профессиональный (двухголосый закадровый) Ozz-Режиссер: Пол Бриганти, Tim WilkersonВ ролях: Кэтрин Паркинсон, Люси Хатчинсон, Рентон Скиннер, Эмма Пирсон, Гарри Пикок, Триксибелл Харроуэлл, Eliana Sparrow, Каспер Олпресс, Клайв Роу, Шола Адевузи-Описание: Неприглядная правда о том, что дорого вашему сердцу.
Адам Коновер рушит стереотипы, навязанные обществом, телевидением и соседями. Работа, секс, машины, рестораны, терроризм и благотворительность – все знания об этом подвергаются серьезному сомнению в выпусках популярного шоу «Адам портит всё»- -- Роли озвучивают: |Алексей Серёгин и Ирина Воронова|
Автор перевода: |Trotteville|
Подготовлено: Ozz-Качество: HDTVRip 720p
Формат: mkv
Видео кодек: x264
Аудио кодек: AC3
Видео: 1280x720 at 23,976 fps, AVC, 2600 kbps avg, 0.107 b/pixel
Аудио #1: Russian 48.0 KHz, AC3 , 6 channels, 448 Kbps |Ozz|
Аудио #2: English 48.0 KHz, AC3 , 6 channels, 448 Kbps |Original|

MediaInfo

Код:
Общее
Уникальный идентификатор                 : 248230000897010572180418149174158974630 (0xBABF5BF35EBBD075B50D8611AEAE5EA6)
Полное имя                               : H:\Adam.Ruins.Everything.S02.720p.HDTVRip.Rus.Eng.Ozz\Adam.Ruins.Everything.S02E01.720p.HDTVRip.Rus.Eng.Ozz.mkv
Формат                                   : Matroska
Версия формата                           : Version 4 / Version 2
Размер файла                             : 506 Мбайт
Продолжительность                        : 21 м.
Общий поток                              : 3332 Кбит/сек
Дата кодирования                         : UTC 2016-09-09 13:03:12
Программа кодирования                    : mkvmerge v6.3.0 ('You can't stop me!') built on Jun 28 2013 20:09:41
Библиотека кодирования                   : libebml v1.3.0 + libmatroska v1.4.0
Видео
Идентификатор                            : 1
Формат                                   : AVC
Формат/Информация                        : Advanced Video Codec
Профиль формата                          : High@L4.1
Параметр CABAC формата                   : Да
Параметр ReFrames формата                : 5 кадров
Идентификатор кодека                     : V_MPEG4/ISO/AVC
Продолжительность                        : 21 м.
Битрейт                                  : 2370 Кбит/сек
Ширина                                   : 1280 пикселей
Высота                                   : 720 пикселей
Соотношение сторон                       : 16:9
Режим частоты кадров                     : Постоянный
Частота кадров                           : 23,976 кадра/сек
Цветовое пространство                    : YUV
Субдискретизация насыщенности            : 4:2:0
Битовая глубина                          : 8 бит
Тип развёртки                            : Прогрессивная
Бит/(Пиксели*Кадры)                      : 0.107
Размер потока                            : 360 Мбайт (71%)
Библиотека кодирования                   : x264 core 148 r2705 3f5ed56
Настройки программы                      : cabac=1 / ref=5 / deblock=1:0:0 / analyse=0x3:0x113 / me=umh / subme=8 / psy=1 / psy_rd=1.00:0.00 / mixed_ref=1 / me_range=16 / chroma_me=1 / trellis=1 / 8x8dct=1 / cqm=0 / deadzone=21,11 / fast_pskip=1 / chroma_qp_offset=-2 / threads=12 / lookahead_threads=2 / sliced_threads=0 / nr=0 / decimate=1 / interlaced=0 / bluray_compat=0 / constrained_intra=0 / bframes=3 / b_pyramid=2 / b_adapt=2 / b_bias=0 / direct=3 / weightb=1 / open_gop=0 / weightp=2 / keyint=250 / keyint_min=23 / scenecut=40 / intra_refresh=0 / rc_lookahead=50 / rc=crf / mbtree=1 / crf=21.0 / qcomp=0.60 / qpmin=0 / qpmax=69 / qpstep=4 / ip_ratio=1.40 / aq=1:1.00
Default                                  : Да
Forced                                   : Нет
Аудио #1
Идентификатор                            : 2
Формат                                   : AC-3
Формат/Информация                        : Audio Coding 3
Расширение режима                        : CM (complete main)
Параметр Endianness формата              : Big
Идентификатор кодека                     : A_AC3
Продолжительность                        : 21 м.
Вид битрейта                             : Постоянный
Битрейт                                  : 448 Кбит/сек
Каналы                                   : 6 каналов
Расположение каналов                     : Front: L C R, Side: L R, LFE
Частота                                  : 48,0 КГц
Битовая глубина                          : 16 бит
Метод сжатия                             : С потерями
Размер потока                            : 68,1 Мбайт (13%)
Заголовок                                : DVO Ozz-tv
Язык                                     : Russian
Default                                  : Да
Forced                                   : Нет
Аудио #2
Идентификатор                            : 3
Формат                                   : AC-3
Формат/Информация                        : Audio Coding 3
Расширение режима                        : CM (complete main)
Параметр Endianness формата              : Big
Идентификатор кодека                     : A_AC3
Продолжительность                        : 21 м.
Вид битрейта                             : Постоянный
Битрейт                                  : 448 Кбит/сек
Каналы                                   : 6 каналов
Расположение каналов                     : Front: L C R, Side: L R, LFE
Частота                                  : 48,0 КГц
Битовая глубина                          : 16 бит
Метод сжатия                             : С потерями
Размер потока                            : 68,1 Мбайт (13%)
Язык                                     : English
Default                                  : Нет
Forced                                   : Нет
Текст #1
Идентификатор                            : 4
Формат                                   : UTF-8
Идентификатор кодека                     : S_TEXT/UTF8
Идентификатор кодека/Информация          : UTF-8 Plain Text
Заголовок                                : Trotteville
Язык                                     : Russian
Default                                  : Нет
Forced                                   : Нет
Текст #2
Идентификатор                            : 5
Формат                                   : UTF-8
Идентификатор кодека                     : S_TEXT/UTF8
Идентификатор кодека/Информация          : UTF-8 Plain Text
Язык                                     : English
Default                                  : Нет
Forced                                   : Нет

Скриншоты

Внимание! Раздача ведётся путём добавления новых серий

Внимание! Раздача ведётся путём добавления новых серий; при каждом добавлении создаётся новый торрент. Чтобы начать докачку новой серии, пользователям необходимо сделать следующее:
(1) остановить скачивание,
(2) удалить старый торрент у себя из клиента (старые серии удалять не надо),
(3) скачать новый торрент и запустить его у себя в клиенте вместо старого, при этом указать клиенту путь в старую папку куда и должно происходить скачивание новых серий.
Ваш клиент при этом должен произвести хеширование (проверку) старой папки (если не производит сам - помогите ему сделать это), и будет докачивать только те серии которых у вас ещё нет. Старые серии при этом не удаляются, а продолжают раздаваться!
Eсли вы уже удалили старые серии, то предотвратить повторную закачку старых серий можно, отжав галочку в соответствующих местах при запуске нового торрента. По возможности, желательно не удалять старые серии как можно дольше чтобы релизёр не столько продолжал раздавать старые серии, а смог сконцентрироваться на новых.
-
Вне форума [Профиль] [ЛС]
Показать сообщения:    
Ответить на тему

Текущее время: Сегодня 12:48

Часовой пояс: GMT + 3



Вы не можете начинать темы
Вы не можете отвечать на сообщения
Вы не можете редактировать свои сообщения
Вы не можете удалять свои сообщения
Вы не можете голосовать в опросах
Вы не можете прикреплять файлы к сообщениям
Вы не можете скачивать файлы