Сегодня идет свободное скачивание без начисления Download

Летающий Честмир / "Létající Čestmír / Серии: 1-6 из 6 (Вацлав Ворличек / Václav Vorlíček) [1983, Семейное кино, DVDRemux] Original + Rus Sub + Original

Ответить на тему
 
Автор
Сообщение

Omen ®

Стаж: 5 лет 9 месяцев

Сообщений: 184393

Торрент-статистика

Пост 08-Сен-2016 01:01

[Цитировать]

Летающий Честмир / "Létající Čestmír
Год выпуска: 1983
Страна: Чехословакия
Жанр: Семейное кино
Продолжительность: 6 x ~45мин
Перевод: Субтитры (перевод от [url=profile.php?mode=viewprofile&u=708104]amrita[/url])
Режиссёр: Вацлав Ворличек / Václav Vorlíček
В ролях:
Лукаш Беч / Lukáš Bech - ученик Честмир Тренка
Ян Крейдл / Jan Kreidl - ученик Давид Пельц
Алена Карешева / Alena Karešová - рассказчик (женский голос)
Жанетта Фуксова / Žaneta Fuchsová - ученица Барбора Бартелова
Антонин Кала / Antonín Kala - ученик Оскар Блеха
Владимир Меншик / Vladimír Menšík - пан Тренка, отец Честмира и менеджер Института совершенства человека
Здена Гадрболцова / Zdena Hadrbolcová - пани Тренкова, мать Честмира
Ивана Андрлова / Ivana Andrlová - Зузана Тренкова, сестра Честмира и ассистентка в Институте
Петр Нарожны / Petr Nárožný - парикмахер Блеха, отец Оскара
Ива Янжурова / Iva Janžurová - парикмахерша Блехова, мать Оскара
Иван Выскочил / Ivan Vyskočil - учитель Филипп Янда
Иржи Совак / Jiří Sovák - профессор Отакар Лангмаер, директор Института совершенства человека
Нелли Гиерова / Nelly Gaierová - Отылка Лангмаерова, сестра профессора
Мари Росулкова / Marie Rosůlková - Сесилка Лангмаерова, сестра профессора
Иржина Богдалова / Jiřina Bohdalová - учительница Клепачова
Стелла Зазворкова / Stella Zázvorková - директрисса школы
Мартин Ружек / Martin Růžek - профессор Олсон
Иржи Лабус / Jiří Lábus - взрослый ученик Давид Пельц
Симона Стасова / Simona Stašová - взрослая ученица Барбора Бартелова
Виктор Крал / Viktor Král - маленький Отакарек Лангмаер
Описание:
По дороге в школу Честмир Тренка попадает в невероятную историю: его поглощает метеорит, и он вдруг оказывается на Планете цветов. С этой планеты Честмир приносит два цветка. Когда понюхаешь первый, можешь летать, а с другим - становишься взрослым. Это становится причиной опоздания в школу. Учительница не верит в его извинения и вызывает его отца в школу. Тетка ему говорит, что он очень похож на своего отца. И поэтому Честмир решается, пойти к учительнице вместо своего отца...
Качество: DVDRemux
Формат: MKV
Видео: PAL MPEG2, 576i50 (4:3) 25fps ~4300kbps VBR
Аудио: AC3, Czech, 1.0 channel, 128kbps, 48kHz
Субтитры 1: SRT, Русские
Субтитры 2: SRT, Czech

Список серий

1. Синий камень
2. Шесть цветочных горшков
3. Гениальная семья
4. Великий визирь
5. Семейство на ветвях
6. Последний цветок

MediaInfo на примере одного файла (остальные аналогичные)

Уникальный идентификатор : 225956286167249350010314804423240992262 (0xA9FD990723F08800A432AD77D6A84606)
Полное имя : 1. Синий камень [CS - RU CS] (1983).mkv
Формат : Matroska
Версия формата : Version 4 / Version 2
Размер файла : 1,40 Гбайт
Продолжительность : 45 м.
Режим общего битрейта : Переменный
Общий поток : 4428 Кбит/сек
Дата кодирования : UTC 2016-09-06 18:17:32
Программа кодирования : mkvmerge v8.5.2 ('Crosses') 64bit
Библиотека кодирования : libebml v1.3.3 + libmatroska v1.4.4
Видео
Идентификатор : 1
Формат : MPEG Video
Версия формата : Version 2
Профиль формата : Main@Main
Параметр BVOP формата : Да
Параметр матрицы формата : Выборочная
Параметр GOP формата : M=3, N=15
Идентификатор кодека : V_MPEG2
Идентификатор кодека/Информация : MPEG 1 or 2 Video
Продолжительность : 45 м.
Вид битрейта : Переменный
Битрейт : 4296 Кбит/сек
Максимальный битрейт : 9800 Кбит/сек
Ширина : 720 пикселей
Высота : 576 пикселей
Соотношение сторон : 4:3
Режим частоты кадров : Постоянный
Частота кадров : 25,000 кадров/сек
Стандарт вещания : PAL
Цветовое пространство : YUV
Субдискретизация насыщенности : 4:2:0
Битовая глубина : 8 бит
Тип развёртки : Прогрессивная
Порядок развёртки : Верхнее поле первое
Метод сжатия : С потерями
Бит/(Пиксели*Кадры) : 0.414
Временной код первого кадра : 01:00:00:00
Оригинал временного кода : Group of pictures header
GOP, открыто/закрыто : Закрыто
Размер потока : 1,36 Гбайт (97%)
Default : Да
Forced : Нет
Аудио
Идентификатор : 2
Формат : AC-3
Формат/Информация : Audio Coding 3
Расширение режима : CM (complete main)
Параметр Endianness формата : Big
Идентификатор кодека : A_AC3
Продолжительность : 45 м.
Вид битрейта : Постоянный
Битрейт : 128 Кбит/сек
Каналы : 1 канал
Расположение каналов : Front: C
Частота : 48,0 КГц
Частота кадров : 31,250 кадров/сек (1536 spf)
Метод сжатия : С потерями
Размер потока : 41,4 Мбайт (3%)
Язык : Czech
Default : Да
Forced : Нет
Текст #1
Идентификатор : 3
Формат : UTF-8
Идентификатор кодека : S_TEXT/UTF8
Идентификатор кодека/Информация : UTF-8 Plain Text
Продолжительность : 43 м.
Битрейт : 110 бит/сек
Count of elements : 624
Размер потока : 35,3 Кбайт (0%)
Язык : Russian
Default : Да
Forced : Нет
Текст #2
Идентификатор : 4
Формат : UTF-8
Идентификатор кодека : S_TEXT/UTF8
Идентификатор кодека/Информация : UTF-8 Plain Text
Продолжительность : 43 м.
Битрейт : 62 бит/сек
Count of elements : 514
Размер потока : 19,9 Кбайт (0%)
Язык : Czech
Default : Нет
Forced : Нет

Скриншоты

Вне форума [Профиль] [ЛС]
Показать сообщения:    
Ответить на тему

Текущее время: Сегодня 04:35

Часовой пояс: GMT + 3



Вы не можете начинать темы
Вы не можете отвечать на сообщения
Вы не можете редактировать свои сообщения
Вы не можете удалять свои сообщения
Вы не можете голосовать в опросах
Вы не можете прикреплять файлы к сообщениям
Вы не можете скачивать файлы