Сегодня идет свободное скачивание без начисления Download

Атланта / Atlanta / Сезон: 1 / Серия: 1 из 10 (Дональд Гловер / Donald Glover) [2016, комедия, WEB-DLRip-AVC] MVO (NewStudio) + Original

Ответить на тему
 
Автор
Сообщение

Omen ®

Стаж: 6 лет 1 месяц

Сообщений: 184308

Торрент-статистика

Пост 08-Сен-2016 01:00

[Цитировать]

Атланта - Первый сезонAtlanta - The First Season- Год выпуска: 2016
Страна: США
Жанр: комедия-Продолжительность: 00:25:00
Перевод: Профессиональный (многоголосый закадровый) NewStudio
Автор идеи: Дональд Гловер / Donald Glover
В ролях: Дональд Гловер, Брэт Е. Бенсон, Карра Грир, Эмметт Хантер, Райан Ньютон и др.-Описание: Сериал рассказывает о двоюродных братьях, которые пробиваются на рэп-сцену Атланты, где успех им вовсе не гарантирован. История, как сама жизнь - смешная, серьёзная и грустная одновременно.- -Sample-Качество: WEB-DLRip-AVC
Формат: MKV
Видео: x264, 960x540 (16:9), 23.976 fps, ~2000 kbps avg, 0.161 bit/pixel
Аудио #1: Russian 48.0 KHz, AC3, 6 channels, ~384.00 kbps avg |NewStudio|
Аудио #2: English 48.0 KHz, AC3, 6 channels, ~384.00 kbps avg |Original|
Субтитры: русские (на надписи)-

Релиз

Релиз -
Рип - whip93.
Перевод - Александра Цернант.
Постер - Vortex.

Внимание! Раздача ведётся путём добавления новых серий

Когда раздача ведётся путём добавления новых серий, при каждом добавлении создётся новый торрент. Чтобы начать докачку новой серии, пользователям необходимо сделать следующее:
(1) остановить скачивание,
(2) удалить старый торрент у себя из клиента (старые серии удалять не надо),
(3) скачать новый торрент и запустить его у себя в клиенте вместо старого, при этом указать клиенту путь в старую папку, куда и должно происходить скачивание новых серий.
Ваш клиент при этом должен произвести хеширование (проверку) старой папки (если не производит сам - помогите ему сделать это), и будет докачивать только те серии, которых у вас ещё нет. Старые серии при этом не удаляются, а продолжают раздаваться!
Eсли вы уже удалили старые серии, то предотвратить повторную закачку старых серий можно, отжав галочку в соответсвующих местах при запуске нового торрента. По возможности, желательно не удалять старые серии как можно дольше, чтобы релизёр не столько продолжал раздавать старые серии, а смог сконцентрироваться на новых.

MediaInfo

GeneralUnique ID : 172005453926061513607687274582369740809 (0x81670BA1649D244EAE7574783309A809)Complete name : G:\Atlanta Season 1 CasStudio.TV\Atlanta.S01E01.WEB-DLRip.Rus.Eng.CasStudio.TV.mkvFormat : MatroskaFormat version : Version 4 / Version 2File size : 505 MiBDuration : 25mn 30sOverall bit rate : 2 769 KbpsMovie name : Атланта | Atlanta (S01E01) - Release by CasStudio.TVEncoded date : UTC 2016-09-07 13:28:05Writing application : mkvmerge v6.1.0 ('Old Devil') built on Mar 4 2013 09:10:42Writing library : libebml v1.3.0 + libmatroska v1.4.0
VideoID : 1Format : AVCFormat/Info : Advanced Video CodecFormat profile : High@L4.1Format settings, CABAC : YesFormat settings, ReFrames : 12 framesCodec ID : V_MPEG4/ISO/AVCDuration : 25mn 30sBit rate : 2 000 KbpsWidth : 960 pixelsHeight : 540 pixelsDisplay aspect ratio : 16:9Frame rate mode : ConstantFrame rate : 23.976 fpsColor space : YUVChroma subsampling : 4:2:0Bit depth : 8 bitsScan type : ProgressiveBits/(Pixel*Frame) : 0.161Stream size : 355 MiB (70%)Title : Encoded by whip93Writing library : x264 core 148 r2705kMod 3f5ed56Encoding settings : cabac=1 / ref=13 / deblock=1:-3:-3 / analyse=0x3:0x133 / me=umh / subme=9 / psy=1 / fade_compensate=0.00 / psy_rd=1.00:0.08 / mixed_ref=1 / me_range=64 / chroma_me=1 / trellis=1 / 8x8dct=1 / cqm=0 / deadzone=21,11 / fast_pskip=1 / chroma_qp_offset=-3 / threads=12 / lookahead_threads=1 / sliced_threads=0 / nr=0 / decimate=1 / interlaced=0 / bluray_compat=0 / constrained_intra=0 / fgo=0 / bframes=13 / b_pyramid=1 / b_adapt=1 / b_bias=0 / direct=3 / weightb=1 / open_gop=0 / weightp=2 / keyint=250 / keyint_min=23 / scenecut=40 / intra_refresh=0 / rc_lookahead=60 / rc=2pass / mbtree=1 / bitrate=2000 / ratetol=1.0 / qcomp=0.72 / qpmin=0 / qpmax=69 / qpstep=4 / cplxblur=20.0 / qblur=0.5 / vbv_maxrate=62500 / vbv_bufsize=78125 / nal_hrd=none / filler=0 / ip_ratio=1.40 / aq=1:1.00Language : EnglishDefault : YesForced : NoColor primaries : BT.709Transfer characteristics : BT.709Matrix coefficients : BT.709
Audio #1ID : 2Format : AC-3Format/Info : Audio Coding 3Mode extension : CM (complete main)Format settings, Endianness : BigCodec ID : A_AC3Duration : 25mn 30sBit rate mode : ConstantBit rate : 384 KbpsChannel(s) : 6 channelsChannel positions : Front: L C R, Side: L R, LFESampling rate : 48.0 KHzBit depth : 16 bitsCompression mode : LossyStream size : 70.0 MiB (14%)Language : RussianDefault : YesForced : No
Audio #2ID : 3Format : AC-3Format/Info : Audio Coding 3Mode extension : CM (complete main)Format settings, Endianness : BigCodec ID : A_AC3Duration : 25mn 30sBit rate mode : ConstantBit rate : 384 KbpsChannel(s) : 6 channelsChannel positions : Front: L C R, Side: L R, LFESampling rate : 48.0 KHzBit depth : 16 bitsCompression mode : LossyStream size : 70.0 MiB (14%)Language : EnglishDefault : NoForced : No
TextID : 4Format : ASSCodec ID : S_TEXT/ASSCodec ID/Info : Advanced Sub Station AlphaCompression mode : LosslessLanguage : RussianDefault : YesForced : No

Скриншоты

-
Вне форума [Профиль] [ЛС]
Похожие темы
Форум Тема Автор Торрент Отв. Посл. сообщение
./templates/default/images/folder_dl.gif Новинки (HD|DVD|BD|WEB|TV|SAT|PDTV|-Rip) Атлантида / Cold Skin (Дени Вильнёв) [2017 г., ужасы, фантастика, триллер, приключения, WEB-DLRip-AVC] DUB | iTunes Theseus
1 | 0

0 | 523

19

2018-01-03 19:20
Theseus Последнее
Показать сообщения:    
Ответить на тему

Текущее время: Сегодня 14:25

Часовой пояс: GMT + 3



Вы не можете начинать темы
Вы не можете отвечать на сообщения
Вы не можете редактировать свои сообщения
Вы не можете удалять свои сообщения
Вы не можете голосовать в опросах
Вы не можете прикреплять файлы к сообщениям
Вы не можете скачивать файлы