Сегодня идет свободное скачивание без начисления Download

Штамм / The Strain / Сезон: 3 / Серия: 1 из 13 (Гильермо дель Торо / Гильермо дель Торо) [2016, ужасы, триллер, драма, WEBRip-AVC] MVO (LostFilm) + Original + Rus Subs

Ответить на тему
 
Автор
Сообщение

Omen ®

Стаж: 5 лет 10 месяцев

Сообщений: 184329

Торрент-статистика

Пост 08-Сен-2016 01:00

[Цитировать]

Штамм - Третий сезонThe Strain - The Third Season- Год выпуска: 2016
Страна: США
Жанр: ужасы, триллер, драма-Продолжительность: 00:45:00
Перевод: Профессиональный (многоголосый закадровый) LostFilm
Автор идеи: Гильермо дель Торо / Гильермо дель Торо
В ролях: Кори Столл, Кевин Дюран, Натали Браун, Шон Эстин, Дэвид Брэдли, Миа Маэстро, Джонатан Хайд, Рихард Заммель, Мигель Гомес, Рута Гедминтас, Лиззи Брошере, Макс Чарльз и др.-Описание: В начале третьего сезона Нью-Йорк превратится в поле боя. Местные жители, брошенные властями на произвол судьбы, вынуждены самостоятельно бороться за выживание. Вопрос заключается лишь в одном: кто победит? Люди или вампиры? Главные герои выигрывают битвы, но не войну. Их терзают личные проблемы — предательство, разочарование, паранойя. Хозяин же в это время как никогда близок к осуществлению своего плана по необратимому изменению мира. Осталась ли надежда на спасение человечества?..- -Sample-Качество: WEBRip-AVC
Формат: MKV
Видео: x264, 960x540 (16:9), 23.976 fps, ~2000 kbps avg, 0.161 bit/pixel
Аудио #1: Russian 48.0 KHz, AC3, 6 channels, ~384.00 kbps avg |LostFilm|
Аудио #2: English 48.0 KHz, AC3, 6 channels, ~384.00 kbps avg |Original|
Субтитры: русские (Rovus)-

Релиз

Релиз -
Работа со звуком - s_white.
Рип и синхронизация субтитров - whip93.
s_white писал(а):
Цитата:
Дорожка №1 получена наложением выделенных голосов на центр оригинального AC3.

Внимание! Раздача ведётся путём добавления новых серий

Когда раздача ведётся путём добавления новых серий, при каждом добавлении создётся новый торрент. Чтобы начать докачку новой серии, пользователям необходимо сделать следующее:
(1) остановить скачивание,
(2) удалить старый торрент у себя из клиента (старые серии удалять не надо),
(3) скачать новый торрент и запустить его у себя в клиенте вместо старого, при этом указать клиенту путь в старую папку, куда и должно происходить скачивание новых серий.
Ваш клиент при этом должен произвести хеширование (проверку) старой папки (если не производит сам - помогите ему сделать это), и будет докачивать только те серии, которых у вас ещё нет. Старые серии при этом не удаляются, а продолжают раздаваться!
Eсли вы уже удалили старые серии, то предотвратить повторную закачку старых серий можно, отжав галочку в соответсвующих местах при запуске нового торрента. По возможности, желательно не удалять старые серии как можно дольше, чтобы релизёр не столько продолжал раздавать старые серии, а смог сконцентрироваться на новых.

MediaInfo

GeneralUnique ID : 202018979982376432888786812208315930333 (0x97FB70B6BB47F947BCB0F56A5E7C96DD)Complete name : G:\The Strain Season 3 CasStudio.TV\The.Strain.S03E01.WEBRip.Rus.Eng.CasStudio.TV.mkvFormat : MatroskaFormat version : Version 4 / Version 2File size : 885 MiBDuration : 44mn 38sOverall bit rate : 2 771 KbpsMovie name : Штамм | The Strain (S03E01) - Release by whip93Encoded date : UTC 2016-09-07 12:18:34Writing application : mkvmerge v6.1.0 ('Old Devil') built on Mar 4 2013 09:10:42Writing library : libebml v1.3.0 + libmatroska v1.4.0
VideoID : 1Format : AVCFormat/Info : Advanced Video CodecFormat profile : High@L4.1Format settings, CABAC : YesFormat settings, ReFrames : 12 framesCodec ID : V_MPEG4/ISO/AVCDuration : 44mn 38sBit rate : 2 000 KbpsWidth : 960 pixelsHeight : 540 pixelsDisplay aspect ratio : 16:9Frame rate mode : ConstantFrame rate : 23.976 fpsColor space : YUVChroma subsampling : 4:2:0Bit depth : 8 bitsScan type : ProgressiveBits/(Pixel*Frame) : 0.161Stream size : 622 MiB (70%)Title : Encoded by whip93Writing library : x264 core 148 r2705kMod 3f5ed56Encoding settings : cabac=1 / ref=13 / deblock=1:-3:-3 / analyse=0x3:0x133 / me=umh / subme=9 / psy=1 / fade_compensate=0.00 / psy_rd=1.00:0.08 / mixed_ref=1 / me_range=64 / chroma_me=1 / trellis=1 / 8x8dct=1 / cqm=0 / deadzone=21,11 / fast_pskip=1 / chroma_qp_offset=-3 / threads=12 / lookahead_threads=1 / sliced_threads=0 / nr=0 / decimate=1 / interlaced=0 / bluray_compat=0 / constrained_intra=0 / fgo=0 / bframes=13 / b_pyramid=1 / b_adapt=1 / b_bias=0 / direct=3 / weightb=1 / open_gop=0 / weightp=2 / keyint=250 / keyint_min=23 / scenecut=40 / intra_refresh=0 / rc_lookahead=60 / rc=2pass / mbtree=1 / bitrate=2000 / ratetol=1.0 / qcomp=0.72 / qpmin=0 / qpmax=69 / qpstep=4 / cplxblur=20.0 / qblur=0.5 / vbv_maxrate=62500 / vbv_bufsize=78125 / nal_hrd=none / filler=0 / ip_ratio=1.40 / aq=1:1.00Language : EnglishDefault : YesForced : NoColor primaries : BT.709Transfer characteristics : BT.709Matrix coefficients : BT.709
Audio #1ID : 2Format : AC-3Format/Info : Audio Coding 3Mode extension : CM (complete main)Format settings, Endianness : BigCodec ID : A_AC3Duration : 44mn 38sBit rate mode : ConstantBit rate : 384 KbpsChannel(s) : 6 channelsChannel positions : Front: L C R, Side: L R, LFESampling rate : 48.0 KHzBit depth : 16 bitsCompression mode : LossyStream size : 123 MiB (14%)Language : RussianDefault : YesForced : No
Audio #2ID : 3Format : AC-3Format/Info : Audio Coding 3Mode extension : CM (complete main)Format settings, Endianness : BigCodec ID : A_AC3Duration : 44mn 38sBit rate mode : ConstantBit rate : 384 KbpsChannel(s) : 6 channelsChannel positions : Front: L C R, Side: L R, LFESampling rate : 48.0 KHzBit depth : 16 bitsCompression mode : LossyStream size : 123 MiB (14%)Language : EnglishDefault : NoForced : No
TextID : 4Format : UTF-8Codec ID : S_TEXT/UTF8Codec ID/Info : UTF-8 Plain TextLanguage : RussianDefault : NoForced : No
Menu00:00:00.000 : en:FX00:00:18.000 : en:Recap00:01:36.000 : en:Fet helps direct a team of Navy Seals00:03:44.000 : en:Opening Credits00:04:37.000 : en:A patrol finds Ephraim in his home00:06:58.000 : en:Justine tells Ephraim about her dwindling forces00:11:36.000 : en:Ephraim barters for food00:13:14.000 : en:Quinlan helps Abraham decipher an old book00:14:10.000 : en:Fet reports on the Navy Seal's progress to Justine00:15:30.000 : en:Ephraim has a close encounter while looking for fuel00:18:56.000 : en:Gus prepares dinner for his mother00:20:37.000 : en:Quinlan speaks to the ancients00:22:51.000 : en:Fet explains his prejudice to Quinlan00:27:35.000 : en:Fet leads another team of soldiers underground00:30:12.000 : en:Eichorst leads the soldiers to their deaths00:36:48.000 : en:Kelly tells Zach she made a deal with The Master00:38:32.000 : en:Kelly proposes a trade00:42:19.000 : en:End Credits00:43:03.000 : en:FX

Скриншоты

-
Вне форума [Профиль] [ЛС]
Показать сообщения:    
Ответить на тему

Текущее время: Сегодня 14:45

Часовой пояс: GMT + 3



Вы не можете начинать темы
Вы не можете отвечать на сообщения
Вы не можете редактировать свои сообщения
Вы не можете удалять свои сообщения
Вы не можете голосовать в опросах
Вы не можете прикреплять файлы к сообщениям
Вы не можете скачивать файлы