Сегодня идет свободное скачивание без начисления Download

Неприрученные / Wild at Heart / Сезон: 5 / Серии: 1-7 из 10 (Николас Лафлэнд / Nicholas Laughland) [2010, драма, HDTVRip] DVO

Ответить на тему
 
Автор
Сообщение

Omen ®

Стаж: 5 лет 10 месяцев

Сообщений: 184329

Торрент-статистика

Пост 08-Сен-2016 01:00

[Цитировать]

Неприрученные / Wild at Heart5 сезон: Серии 1-7 из 10 Год выпуска: 2010
Страна: Великобритания
Жанр: драма
Продолжительность: ~ 00:45:00 сери
Перевод: Профессиональный (двухголосый закадровый)
Режиссёр: Николас Лафлэнд / Nicholas Laughland
В ролях: Стивен Томпкинсон, Дион Стюардсон, Номса Ксаба, Тапело Мокоэна, Хейли Миллз, Люси-Джо Хадсон, Люк Уорд-Уилкинсон, Доун Стил, Оливия Скот-Тэйлор, Мэри-Энн Барлоу
Описание: Знакомьтесь: перед вами типичная британская семья — папа, мама, трое детей. Ну, может, не совсем типичная… Итак, Дэнни Треваньон — ветеринар, вдовец, немного за сорок, Рози — его восемнадцатилетняя дочь, Сара — полгода назад стала его женой, Эван и Оливия — тринадцати и восьми лет от роду соответственно — дети Сары от первого брака. Живут в Англии.
Но в один прекрасный момент переезжают в южно-африканский буш, где всем правит её величество Природа, живут слоны, жирафы, носороги и много кто ещё… Зачем они это делают? Что их ждёт в будущем, как изменится судьба каждого из них? Хотите узнать — смотрите великолепный британский сериал для всей семьи. Итак, всё начинается с одной маленькой зелёной мартышки…
Сэмпл: https://yadi.sk/i/RSEIzIREujMTc


Качество: HDTVRip
Формат: AVI
Видео: 720x400 (16:9), 25 fps, XviD, 2061 kbps avg, 0.286 bit/pixel
Аудио: [Русский] AC3, 48 kHz, 2 ch, 192 kbps
Субтитры: отсутствуют

MediaInfo

Общее
Полное имя : D:\Неприрученные - 5 сезон (HDTVRIp)\Неприрученные (01 серия).avi
Формат : AVI
Формат/Информация : Audio Video Interleave
Размер файла : 744 Мбайт
Продолжительность : 46 м.
Общий поток : 2262 Кбит/сек
Программа кодирования : VirtualDubMod 1.5.10.3 | www.virtualdub-fr.org || (build 2550/release)
Библиотека кодирования : VirtualDubMod build 2550/release
Видео
Идентификатор : 0
Формат : MPEG-4 Visual
Профиль формата : Advanced Simple@L5
Параметр BVOP формата : 1
Параметр QPel формата : Нет
Параметр GMC формата : Без точки перехода
Параметр матрицы формата : Default (MPEG)
Идентификатор кодека : XVID
Идентификатор кодека/Подсказка : XviD
Продолжительность : 46 м.
Битрейт : 2061 Кбит/сек
Ширина : 720 пикселей
Высота : 400 пикселей
Соотношение сторон : 16:9
Частота кадров : 25,000 кадров/сек
Цветовое пространство : YUV
Субдискретизация насыщенности : 4:2:0
Битовая глубина : 8 бит
Тип развёртки : Прогрессивная
Метод сжатия : С потерями
Бит/(Пиксели*Кадры) : 0.286
Размер потока : 678 Мбайт (91%)
Библиотека кодирования : XviD 1.2.1 (UTC 2008-12-04)
Аудио
Идентификатор : 1
Формат : AC-3
Формат/Информация : Audio Coding 3
Расширение режима : CM (complete main)
Параметр Endianness формата : Big
Идентификатор кодека : 2000
Продолжительность : 46 м.
Вид битрейта : Постоянный
Битрейт : 192 Кбит/сек
Каналы : 2 канала
Расположение каналов : Front: L R
Частота : 48,0 КГц
Битовая глубина : 16 бит
Метод сжатия : С потерями
Размер потока : 63,2 Мбайт (8%)
Выравнивание : Разделение по промежуткам
Продолжительность промежутка : 40 мс. (1,00 видеокадр)
Время предзагрузки промежутка : 500 мс.

Скриншоты

Внимание! Раздача ведётся путём добавления новых серий.

Внимание! Раздача ведётся путём добавления новых серий; при каждом добавлении создётся новый торрент. Чтобы начать докачку новой серии, пользователям необходимо сделать следующее:
(1) остановить скачивание,
(2) удалить старый торрент у себя из клиента (старые серии удалять не надо),
(3) скачать новый торрент и запустить его у себя в клиенте вместо старого, при этом указать клиенту путь в старую папку куда и должно происходить скачивание новых серий.
Ваш клиент при этом должен произвести хеширование (проверку) старой папки (если не производит сам - помогите ему сделать это), и будет докачивать только те серии которых у вас ещё нет. Старые серии при этом не удаляются, а продолжают раздаваться!
Eсли вы уже удалили старые серии, то предотвратить повторную закачку старых серий можно, отжав галочку в соответсвующих местах при запуске нового торрента. По возможности, желательно не удалять старые серии как можно дольше чтобы релизёр не столько продолжал раздавать старые серии, а смог сконцентрироваться на новых.
Добавлена 6,7 серия.
Перекачайте торрент.
Вне форума [Профиль] [ЛС]
Показать сообщения:    
Ответить на тему

Текущее время: Сегодня 11:05

Часовой пояс: GMT + 3



Вы не можете начинать темы
Вы не можете отвечать на сообщения
Вы не можете редактировать свои сообщения
Вы не можете удалять свои сообщения
Вы не можете голосовать в опросах
Вы не можете прикреплять файлы к сообщениям
Вы не можете скачивать файлы