Сегодня идет свободное скачивание без начисления Download

Дом терпимости / Maison close / Сезон: 1 / Серия: 3 из 8 (Мабрук Эль Мекри, Жером Корнюо, Карло Да Фонсека Парсотам и др.) [2010, Драма, HDTVRip] VO (DexterTV)

Ответить на тему
 
Автор
Сообщение

Omen ®

Стаж: 6 лет 1 месяц

Сообщений: 184308

Торрент-статистика

Пост 06-Сен-2016 01:00

[Цитировать]

Дом терпимости / Maison close
1 сезон 3 серия
Год выпуска: 2010
Страна: Франция
Жанр: Драма
Продолжительность: ~50 мин
Перевод: Любительский (одноголосый закадровый) DexterTV по тексту JuicyCherry
Режиссёр: Мабрук Эль Мекри, Жером Корнюо, Карло Да Фонсека Парсотам и др.
В ролях: Энн Шаррье, Валери Карсенти, Джемайма Уэст, Катрин Осмален, Клеменс Бретеше, Дебора Гралл, Бландин Беллевур, Эльза Силва, Себастьен Либессар, Николя Бриансон и др.
Описание: Париж. 1871-й год. Эта история - история "девушек для утех", обслуживающих фешенебельный бордель под названием "Парадиз". Юная и невинная Роза прибывает в Париж в поисках своей матери, бывшей когда-то проституткой. Волею судьбы она оказывается в "Парадизе". Вере 35 лет. Она понимает, что ее красота вскоре померкнет, и ее выкинут из борделя, как ненужную вещь. Она пускает в ход все свое обаяние, чтобы очаровать барона дю Плесси, ведь только он способен о ней позаботиться, и, самое главное, готов выплатить ее долги. Гортензия - хозяйка "Парадиза". По мере своих сил она заботится о своих девушках, но драма неизбежна...….
Сэмпл: http://multi-up.com/1116719
Качество: HDTVRip
Формат: AVI
Видео: 640x352 (16:9), 25.000 fps, 1213 Kbps (0.215 bit/pixel)
Аудио: 48.0 KHz, 2 ch, 192 Kbps abr
Субтитры: отсутствуют

MediaInfo

Format : AVI
Format/Info : Audio Video Interleave
File size : 525 MiB
Duration : 51mn 55s
Overall bit rate : 1 415 Kbps
Writing application : VirtualDubMod 1.5.10.3 | www.virtualdub-fr.org || (build 2550/release)
Writing library : VirtualDub build 35576/release
Video
ID : 0
Format : MPEG-4 Visual
Format profile : Advanced Simple@L5
Format settings, BVOP : 1
Format settings, QPel : No
Format settings, GMC : No warppoints
Format settings, Matrix : Default (MPEG)
Codec ID : XVID
Codec ID/Hint : XviD
Duration : 51mn 55s
Bit rate : 1 213 Kbps
Width : 640 pixels
Height : 352 pixels
Display aspect ratio : 16:9
Frame rate : 25.000 fps
Color space : YUV
Chroma subsampling : 4:2:0
Bit depth : 8 bits
Scan type : Progressive
Compression mode : Lossy
Bits/(Pixel*Frame) : 0.215
Stream size : 450 MiB (86%)
Writing library : XviD 1.2.1 (UTC 2008-12-04)
Audio
ID : 1
Format : MPEG Audio
Format version : Version 1
Format profile : Layer 3
Mode : Joint stereo
Codec ID : 55
Codec ID/Hint : MP3
Duration : 51mn 55s
Bit rate mode : Constant
Bit rate : 192 Kbps
Channel(s) : 2 channels
Sampling rate : 48.0 KHz
Compression mode : Lossy
Stream size : 71.3 MiB (14%)
Alignment : Split accross interleaves
Interleave, duration : 40 ms (1.00 video frame)
Interleave, preload duratio : 500 ms

Скриншоты

Вне форума [Профиль] [ЛС]
Показать сообщения:    
Ответить на тему

Текущее время: Сегодня 23:46

Часовой пояс: GMT + 3



Вы не можете начинать темы
Вы не можете отвечать на сообщения
Вы не можете редактировать свои сообщения
Вы не можете удалять свои сообщения
Вы не можете голосовать в опросах
Вы не можете прикреплять файлы к сообщениям
Вы не можете скачивать файлы