Сегодня идет свободное скачивание без начисления Download

Виктория / Victoria / Сезон: 1 / Серии: 1-2 из 8 (Том Вон, Оливер Блэкбёрн, Сандра Голдбахер) [2016, драма, история, биография, HDTVRip] Original + Rus Sub (notabenoid)

Ответить на тему
 
Автор
Сообщение

Omen ®

Стаж: 5 лет 9 месяцев

Сообщений: 184393

Торрент-статистика

Пост 05-Сен-2016 01:01

[Цитировать]

Виктория / Victoria
Год выпуска: 2016
Страна: Великобритания
Жанр: драма, история, биография
Продолжительность: 45-70
Перевод: Субтитры notabenoid
Режиссёр: Том Вон, Оливер Блэкбёрн, Сандра Голдбахер
В ролях: Дженна Коулман, Руфус Сьюэлл, Том Хьюз, Ив Майлс, Томми Найт, и другие
Описание: Сериал повествует о ранних годах правления Виктории с момента её восшествия на престол в 1837 году: первых неуверенных шагах от капризного подростка, не до конца понимающего своих обязанностей, до брака с принцем Альбертом. Сериал представляет собой сагу о взаимосвязанных общественных кругах: сфере власти Букингемского дворца и Вестминстера, королевских домах Европы, а также скандалах, касающихся служебного персонала дворца. В центре всего этого находится новая королева — энергичная и страстная женщина, которая однажды станет бессмертным воплощением силы и стабильности.
Сэмпл
Качество: HDTVRip
Формат: MP4
Видео: 1280х720 (16:9) MPEG2, 25fps, ~1980 Kbps
Аудио: AAC, 441000Hz stereo, 151Kbps, Оригинал (English)
Субтитры: полные русские

Внимание! Раздача ведется путём добавления новых серий!

Внимание! Раздача ведётся путём добавления новых серий - по мере выхода серий, раздача будет обновляться, и при каждом добавлении создаваться новый торрент.
Чтобы начать докачку новой серии, пользователям необходимо:
1. Остановить скачивание.
2. Удалить старый торрент у себя из клиента (старые серии удалять не надо).
3. Скачать новый торрент и запустить его у себя в клиенте вместо старого, при этом указать клиенту путь в старую папку куда и должно происходить скачивание новых серий.
Ваш клиент при этом должен произвести хеширование (проверку) старой папки (если не производит сам - помогите ему сделать это), и будет докачивать только те серии которых у вас ещё нет. Старые серии при этом не удаляются, а продолжают раздаваться. Eсли вы уже удалили старые серии, то предотвратить повторную закачку старых серий можно отжав галочку в соответствующих местах при запуске нового торрента. По возможности, желательно не удалять старые серии как можно дольше, чтобы релизер не столько продолжал раздавать старые серии, сколько мог сконцентрироваться на новых.

Список серий

1. Кукла 123 (Doll 123)
2. Фрейлины (Ladies in Waiting)

MediaInfo

General
Complete name : C:\Victoria\01._Doll_123.mp4
Format : MPEG-4
Format profile : Base Media
Codec ID : isom
File size : 1.04 GiB
Duration : 1h 9mn
Overall bit rate mode : Variable
Overall bit rate : 2 140 Kbps
Writing application : Lavf56.25.101
Video
ID : 1
Format : AVC
Format/Info : Advanced Video Codec
Format profile : High@L3.1
Format settings, CABAC : Yes
Format settings, ReFrames : 4 frames
Format settings, GOP : M=4, N=25
Codec ID : avc1
Codec ID/Info : Advanced Video Coding
Duration : 1h 9mn
Bit rate : 1 980 Kbps
Width : 1 280 pixels
Height : 720 pixels
Display aspect ratio : 16:9
Frame rate mode : Constant
Frame rate : 25.000 fps
Color space : YUV
Chroma subsampling : 4:2:0
Bit depth : 8 bits
Scan type : Progressive
Bits/(Pixel*Frame) : 0.086
Stream size : 988 MiB (93%)
Writing library : x264 core 142
Encoding settings : cabac=1 / ref=3 / deblock=1:0:0 / analyse=0x3:0x113 / me=hex / subme=7 / psy=1 / psy_rd=1.00:0.00 / mixed_ref=1 / me_range=16 / chroma_me=1 / trellis=1 / 8x8dct=1 / cqm=0 / deadzone=21,11 / fast_pskip=1 / chroma_qp_offset=-2 / threads=6 / lookahead_threads=1 / sliced_threads=0 / nr=0 / decimate=1 / interlaced=0 / bluray_compat=0 / constrained_intra=0 / bframes=3 / b_pyramid=2 / b_adapt=1 / b_bias=0 / direct=1 / weightb=1 / open_gop=0 / weightp=2 / keyint=25 / keyint_min=2 / scenecut=40 / intra_refresh=0 / rc_lookahead=25 / rc=2pass / mbtree=1 / bitrate=1980 / ratetol=1.0 / qcomp=0.60 / qpmin=0 / qpmax=69 / qpstep=4 / cplxblur=20.0 / qblur=0.5 / ip_ratio=1.40 / aq=1:1.00
Audio
ID : 2
Format : AAC
Format/Info : Advanced Audio Codec
Format profile : LC
Codec ID : 40
Duration : 1h 9mn
Bit rate mode : Variable
Bit rate : 152 Kbps
Maximum bit rate : 192 Kbps
Channel(s) : 2 channels
Channel positions : Front: L R
Sampling rate : 44.1 KHz
Compression mode : Lossy
Delay relative to video : 80ms
Stream size : 75.9 MiB (7%)

Скриншоты

Вне форума [Профиль] [ЛС]
Похожие темы
Форум Тема Автор Торрент Отв. Посл. сообщение
./templates/default/images/folder_dl.gif Компьютерная литература Виктор Долженков, Александр Стученков | Microsoft Office Excel 2010 (2011) [PDF] Omen
1 | 0

0 | 1185

13

2014-08-09 12:42
Omen Последнее
./templates/default/images/folder_dl.gif Компьютерная литература Виктор Долженков, Александр Стученков | Самоучитель Excel 2010 (2011) [PDF] Omen
1 | 0

0 | 1124

7

2014-08-09 21:50
Omen Последнее
./templates/default/images/folder_dl.gif Фильмы до 2000 года Шоу-бой (Виктор Волков) [1991 г., драма, мелодрама, DVDRip] volk67
1 | 0

3 | 2775

1

2015-09-01 15:58
volk67 Последнее
./templates/default/images/folder_dl.gif Фантастика, фэнтези, ужасы, мистика Александр Авраменко, Виктория Гетто | Цикл «Волк» [6 книг] (2014-2016) [FB2] moralis
1 | 0

0 | 1780

24

2016-04-24 20:23
moralis Последнее
./templates/default/images/folder_dl.gif Компьютерная литература Виктор Олифер, Наталия Олифер | Компьютерные сети. Принципы, технологии, протоколы [5-е издание] (2016) [PDF] }{@R0N
1 | 0

0 | 7079

11

2017-04-25 22:08
}{@R0N Последнее
./templates/default/images/folder_dl.gif Обучающее видео Виктор Гавриленко | Создание интернет-магазина на WooCommerce (2017) [unpacked] }{@R0N
1 | 0

0 | 1132

23

2017-09-14 13:10
}{@R0N Последнее
./templates/default/images/folder_dl.gif Разное Виктория Бородинова | Как стать фотографом с нуля самостоятельно и начать зарабатывать. Пособие для начинающих фотографов с фото (2017) [PDF] }{@R0N
1 | 0

0 | 4783

7

2017-09-23 22:18
}{@R0N Последнее
./templates/default/images/folder_dl.gif Фантастика, фэнтези, ужасы, мистика Виктор Мишин | Солдат (2017) [FB2] }{@R0N
1 | 0

0 | 8247

10

2017-09-29 20:29
}{@R0N Последнее
Показать сообщения:    
Ответить на тему

Текущее время: Сегодня 19:06

Часовой пояс: GMT + 3



Вы не можете начинать темы
Вы не можете отвечать на сообщения
Вы не можете редактировать свои сообщения
Вы не можете удалять свои сообщения
Вы не можете голосовать в опросах
Вы не можете прикреплять файлы к сообщениям
Вы не можете скачивать файлы